<?xml version="1.0" standalone="no"?>
<!DOCTYPE svg PUBLIC "-//W3C//DTD SVG 1.1//EN" "http://www.w3.org/Graphics/SVG/1.1/DTD/svg11.dtd" >
<svg xmlns="http://www.w3.org/2000/svg">
<metadata>
This is a custom SVG webfont generated by Font Squirrel.
Copyright   :  2011 Bernd Montag
Designer    : Bernd Montag
</metadata>
<defs>
<font id="SansationLightLightItalic" horiz-adv-x="970" >
<font-face units-per-em="2048" ascent="1638" descent="-410" />
<missing-glyph horiz-adv-x="500" />
<glyph unicode=" "  horiz-adv-x="500" />
<glyph unicode="&#x09;" horiz-adv-x="500" />
<glyph unicode="&#xa0;" horiz-adv-x="500" />
<glyph unicode="!" horiz-adv-x="425" d="M18 0l21 105h105l-21 -105h-105zM92 370l212 1060h105l-212 -1060h-105z" />
<glyph unicode="&#x22;" horiz-adv-x="625" d="M197 995l57 435h115l-117 -435h-55zM487 995l57 435h115l-117 -435h-55z" />
<glyph unicode="#" horiz-adv-x="1903" d="M43 374l39 94h392l196 438h-401l39 94h402l195 425h100l-195 -425h458l198 430h100l-197 -430h482l-39 -94h-482l-196 -438h491l-39 -94h-492l-176 -379h-100l176 379h-458l-176 -379h-100l175 379h-392zM575 468h457l197 438h-457z" />
<glyph unicode="$" horiz-adv-x="1030" d="M46 240l20 100q163 -60 332 -60q331 0 373 210q34 170 -211 170h-130q-330 0 -274 280q55 276 429 298l38 192h95l-38 -190q154 -4 306 -50l-20 -100q-163 60 -331 60q-332 0 -374 -210q-36 -180 189 -180h130q350 0 296 -270q-53 -267 -405 -296l-39 -194h-95l38 190 q-167 1 -329 50z" />
<glyph unicode="%" horiz-adv-x="1362" d="M-32 0l1303 1430h125l-1303 -1430h-125zM204 1180q52 260 330 260q274 0 222 -260q-52 -259 -326 -259q-278 0 -226 259zM304 1182q-35 -177 143 -177q174 0 209 177q35 174 -139 174q-178 0 -213 -174zM608 249q52 260 330 260q274 0 222 -260q-52 -259 -326 -259 q-278 0 -226 259zM708 251q-35 -177 143 -177q174 0 209 177q35 174 -139 174q-178 0 -213 -174z" />
<glyph unicode="&#x26;" horiz-adv-x="1295" d="M46 394q50 247 290 333q-210 65 -159 318q77 385 587 385q185 0 350 -50l-18 -90q-175 50 -347 50q-408 0 -466 -290q-56 -280 279 -280h468l34 172h73l-12 -172h172l-18 -90h-162l-38 -190q-99 -493 -617 -493q-495 0 -416 397zM152 399q-61 -309 320 -309 q422 0 502 402l38 188h-466q-337 0 -394 -281z" />
<glyph unicode="'" horiz-adv-x="335" d="M197 995l57 435h115l-117 -435h-55z" />
<glyph unicode="(" horiz-adv-x="525" d="M73 525q90 453 381 905h105q-291 -452 -381 -905q-91 -453 19 -905h-105q-110 452 -19 905z" />
<glyph unicode=")" horiz-adv-x="525" d="M-108 -380q290 452 381 905t-19 905h105q110 -452 19 -905t-381 -905h-105z" />
<glyph unicode="*" horiz-adv-x="830" d="M198 1150l78 150l190 -103l16 233h156l-76 -232l229 101l18 -147l-236 -43l125 -170l-142 -92l-72 205l-153 -204l-107 89l196 171z" />
<glyph unicode="+" d="M64 480l18 90h330l66 330h100l-66 -330h320l-18 -90h-320l-66 -330h-100l66 330h-330z" />
<glyph unicode="," horiz-adv-x="305" d="M-167 -250l237 435h105l-237 -435h-105z" />
<glyph unicode="-" horiz-adv-x="720" d="M64 480l18 90h500l-18 -90h-500z" />
<glyph unicode="." horiz-adv-x="355" d="M-32 0l25 125h135l-25 -125h-135z" />
<glyph unicode="/" horiz-adv-x="985" d="M-107 0l1011 1430h115l-1011 -1430h-115z" />
<glyph unicode="0" horiz-adv-x="1445" d="M111 713q145 727 763 727q607 0 462 -727q-145 -723 -752 -723q-586 0 -473 723zM227 719q-128 -639 375 -639q492 0 620 639q126 631 -366 631q-503 0 -629 -631z" />
<glyph unicode="1" horiz-adv-x="605" d="M118 0l262 1311h-150l12 59l269 70l-288 -1440h-105z" />
<glyph unicode="2" horiz-adv-x="1230" d="M-32 0l18 90q996 607 1061 930q66 330 -354 330q-220 0 -437 -110l20 100q215 100 435 100q525 0 441 -420q-74 -370 -1010 -930h824l-18 -90h-980z" />
<glyph unicode="3" horiz-adv-x="1160" d="M-22 50l20 100q186 -70 386 -70q410 0 474 320q56 280 -276 280h-328l18 90h325q335 0 391 280q60 300 -350 300q-200 0 -414 -70l20 100q212 60 412 60q515 0 437 -390q-51 -256 -303 -325q225 -65 173 -325q-82 -410 -597 -410q-200 0 -388 60z" />
<glyph unicode="4" horiz-adv-x="1220" d="M-14 340l18 90l825 1000h114l-826 -1000h709l114 568h105l-114 -568l151 -36l-11 -54h-158l-68 -340h-105l68 340h-822z" />
<glyph unicode="5" horiz-adv-x="1145" d="M-17 50l20 100q186 -70 396 -70q415 0 487 360q62 310 -343 310q-225 0 -430 -50l196 730h824l-18 -90h-736l-138 -522q191 22 320 22q510 0 430 -400q-90 -450 -620 -450q-200 0 -388 60z" />
<glyph unicode="6" horiz-adv-x="1250" d="M78 550q111 556 843 923l30 -77q-491 -263 -652 -539q194 63 369 63q524 0 434 -450q-96 -480 -609 -480q-527 0 -415 560zM174 556q-95 -476 346 -476q403 0 481 390q72 360 -350 360q-214 0 -398 -68q-52 -70 -79 -206z" />
<glyph unicode="7" horiz-adv-x="1135" d="M155 0l940 1340h-859l18 90h970l-18 -90l-930 -1340h-121z" />
<glyph unicode="8" horiz-adv-x="1260" d="M53 424q48 243 316 321q-195 85 -145 333q73 366 553 366t407 -366q-50 -248 -284 -333q241 -78 193 -321q-87 -434 -607 -434t-433 434zM157 418q-68 -338 352 -338q410 0 478 338q56 282 -367 282q-407 0 -463 -282zM325 1058q-54 -268 326 -268q370 0 424 268 q58 292 -325 292q-367 0 -425 -292z" />
<glyph unicode="9" horiz-adv-x="1210" d="M161 963q96 480 609 480q527 0 415 -560q-111 -556 -843 -923l-40 77q501 263 662 539q-194 -63 -369 -63q-524 0 -434 450zM262 963q-72 -360 350 -360q214 0 398 68q52 70 79 206q95 476 -346 476q-403 0 -481 -390z" />
<glyph unicode=":" horiz-adv-x="395" d="M8 0l25 125h135l-25 -125h-135zM193 925l25 125h135l-25 -125h-135z" />
<glyph unicode=";" horiz-adv-x="545" d="M-82 -250l237 435h105l-237 -435h-105zM293 925l25 125h135l-25 -125h-135z" />
<glyph unicode="&#x3c;" horiz-adv-x="1120" d="M62 470l22 110l984 420l-22 -110l-887 -369l741 -361l-22 -110z" />
<glyph unicode="=" d="M34 330l18 90h750l-18 -90h-750zM94 630l18 90h750l-18 -90h-750z" />
<glyph unicode="&#x3e;" horiz-adv-x="1120" d="M-22 50l22 110l885 361l-739 369l22 110l816 -420l-22 -110z" />
<glyph unicode="?" horiz-adv-x="1135" d="M158 0l21 105h105l-21 -105h-105zM226 1290l18 90q220 50 410 50q515 0 437 -390t-575 -390h-123l-56 -280h-105l74 370h225q395 0 455 300t-350 300q-190 0 -410 -50z" />
<glyph unicode="@" horiz-adv-x="2170" d="M126 540q180 900 1104 900q926 0 746 -900q-138 -690 -525 -690q-248 0 -203 224l35 176q-208 -250 -444 -250q-358 0 -254 521q106 529 591 529q213 0 363 -43l-183 -919q-30 -148 110 -148q285 0 405 600q162 810 -644 810q-834 0 -996 -810q-166 -830 599 -830 l-18 -90q-870 0 -686 920zM688 523q-85 -423 172 -423q244 0 444 254l115 578q-130 24 -270 24q-375 0 -461 -433z" />
<glyph unicode="A" horiz-adv-x="1492" d="M-107 0l933 1430h125l364 -1430h-118l-116 480h-601l49 90h531l-187 778l-861 -1348h-119z" />
<glyph unicode="B" horiz-adv-x="1330" d="M18 0l286 1430h610q350 0 350 -246q0 -40 -9 -87q-48 -244 -365 -349q256 -45 256 -253q0 -38 -9 -82q-83 -413 -530 -413h-589zM141 90h473q346 0 410 320q7 33 7 62q0 221 -383 221h-80l14 71q509 45 565 326q7 35 7 65q0 185 -265 185h-498z" />
<glyph unicode="C" horiz-adv-x="1405" d="M115 735q141 705 891 705q205 0 388 -60l-18 -90q-183 60 -368 60q-665 0 -788 -615q-22 -108 -22 -198q0 -457 556 -457q185 0 392 60l-18 -90q-207 -60 -412 -60q-626 0 -626 519q0 103 25 226z" />
<glyph unicode="D" horiz-adv-x="1470" d="M18 0l286 1430h510q587 0 587 -475q0 -92 -22 -201q-151 -754 -861 -754h-500zM141 90h395q595 0 728 664q19 96 19 177q0 409 -497 409h-395z" />
<glyph unicode="E" horiz-adv-x="1248" d="M18 0l286 1430h939l-18 -90h-834l-114 -570h800l-18 -90h-800l-118 -590h848l-18 -90h-953z" />
<glyph unicode="F" horiz-adv-x="1174" d="M18 0l286 1430h939l-18 -90h-834l-114 -570h800l-18 -90h-800l-136 -680h-105z" />
<glyph unicode="G" horiz-adv-x="1405" d="M115 735q141 705 891 705q205 0 388 -60l-18 -90q-183 60 -368 60q-665 0 -788 -615q-22 -110 -22 -202q0 -453 537 -453q132 0 303 44l105 526h105l-119 -594q-196 -66 -396 -66q-642 0 -642 522q0 102 24 223z" />
<glyph unicode="H" horiz-adv-x="1505" d="M18 0l286 1430h105l-132 -660h975l132 660h105l-286 -1430h-105l136 680h-975l-136 -680h-105z" />
<glyph unicode="I" horiz-adv-x="525" d="M68 0l286 1430h105l-286 -1430h-105z" />
<glyph unicode="J" horiz-adv-x="650" d="M-107 0l18 90q350 0 414 322l204 1018h105l-204 -1018q-82 -412 -537 -412z" />
<glyph unicode="K" horiz-adv-x="1325" d="M18 0l286 1430h105l-286 -1430h-105zM448 698l14 72l774 660h154l-833 -701l601 -729h-147z" />
<glyph unicode="L" horiz-adv-x="1143" d="M18 0l286 1430h105l-268 -1340h828l-18 -90h-933z" />
<glyph unicode="M" horiz-adv-x="1770" d="M18 0l286 1430h105l384 -1307l866 1307h95l-286 -1430h-95l247 1237l-815 -1237h-86l-357 1247l-249 -1247h-95z" />
<glyph unicode="N" horiz-adv-x="1505" d="M18 0l286 1430h115l720 -1276l255 1276h95l-286 -1430h-85l-743 1312l-262 -1312h-95z" />
<glyph unicode="O" horiz-adv-x="1645" d="M111 713q145 727 863 727q587 0 587 -501q0 -103 -25 -226q-145 -723 -852 -723q-597 0 -597 500q0 102 24 223zM227 719q-22 -112 -22 -204q0 -435 497 -435q592 0 720 639q22 111 22 202q0 429 -488 429q-603 0 -729 -631z" />
<glyph unicode="P" horiz-adv-x="1263" d="M18 0l286 1430h600q352 0 352 -278q0 -53 -13 -115q-77 -387 -767 -493l1 96q586 79 648 389q10 50 10 91q0 217 -267 217h-478l-267 -1337h-105z" />
<glyph unicode="Q" horiz-adv-x="1645" d="M110 713q146 727 864 727q586 0 586 -499q0 -104 -25 -228q-141 -704 -814 -723q44 -286 342 -290q100 0 186 30l-18 -90q-86 -30 -186 -30q-405 0 -432 382q-527 29 -527 499q0 101 24 222zM226 719q-22 -111 -22 -203q0 -436 498 -436q592 0 719 639q22 111 22 203 q0 428 -487 428q-603 0 -730 -631z" />
<glyph unicode="R" horiz-adv-x="1235" d="M18 0l286 1430h590q329 0 330 -247q0 -44 -11 -96q-64 -318 -505 -421l350 -666h-124l-342 663l14 73q433 63 489 343q8 39 8 72q0 186 -245 186h-468l-267 -1337h-105z" />
<glyph unicode="S" horiz-adv-x="1310" d="M18 50l22 110q209 -80 480 -80q449 0 517 340q7 37 7 68q0 182 -249 182h-294q-338 0 -338 258q0 47 11 102q82 410 667 410q240 0 453 -60l-20 -100q-211 70 -451 70q-480 0 -544 -320q-8 -39 -8 -72q0 -188 250 -188h294q337 0 337 -253q0 -45 -10 -97 q-86 -430 -640 -430q-271 0 -484 60z" />
<glyph unicode="T" horiz-adv-x="1095" d="M136 1340l18 90h1075l-18 -90h-490l-268 -1340h-105l268 1340h-480z" />
<glyph unicode="U" horiz-adv-x="1470" d="M128 552l176 878h105l-176 -878q-16 -79 -15 -144q0 -328 391 -328q470 0 564 472l176 878h105l-176 -878q-112 -562 -687 -562q-481 0 -481 394q0 76 18 168z" />
<glyph unicode="V" horiz-adv-x="1492" d="M179 1430h108l331 -1349l864 1349h119l-913 -1430h-165z" />
<glyph unicode="W" horiz-adv-x="1869" d="M148 0l31 1430h99l-23 -1329l728 1329h105l207 -1342l543 1342h91l-575 -1430h-152l-191 1306l-714 -1306h-149z" />
<glyph unicode="X" horiz-adv-x="1320" d="M-107 0l706 715l-420 715h120l373 -636l627 636h130l-705 -715l419 -715h-119l-373 636l-627 -636h-131z" />
<glyph unicode="Y" horiz-adv-x="1250" d="M179 1430h125l297 -830l643 830h115l-722 -930l-100 -500h-105l100 500z" />
<glyph unicode="Z" horiz-adv-x="1270" d="M-7 0l16 80l1136 1260h-864l18 90h980l-18 -90l-1117 -1250h847l-18 -90h-980z" />
<glyph unicode="[" horiz-adv-x="565" d="M-58 -380l362 1810h370l-18 -90h-275l-326 -1630h275l-18 -90h-370z" />
<glyph unicode="\" horiz-adv-x="975" d="M179 1430h105l439 -1430h-105z" />
<glyph unicode="]" horiz-adv-x="565" d="M-183 -380l18 90h275l326 1630h-275l18 90h370l-362 -1810h-370z" />
<glyph unicode="^" horiz-adv-x="1070" d="M58 700l546 730h150l254 -730h-110l-234 673l-496 -673h-110z" />
<glyph unicode="_" horiz-adv-x="1070" d="M-125 -90l18 90h1000l-18 -90h-1000z" />
<glyph unicode="`" horiz-adv-x="523" d="M244 1430h159l116 -239h-84z" />
<glyph unicode="a" horiz-adv-x="1127" d="M72 521q106 529 591 529q213 0 363 -43l-201 -1007h-85l30 250q-208 -250 -444 -250q-277 0 -277 313q0 91 23 208zM175 523q-21 -105 -21 -184q0 -239 193 -239q244 0 444 254l115 578q-130 24 -270 24q-375 0 -461 -433z" />
<glyph unicode="b" horiz-adv-x="1128" d="M27 43l277 1387h105l-126 -630q249 250 465 250q262 0 262 -297q0 -86 -22 -197q-112 -556 -555 -556q-226 0 -406 43zM148 123q165 -29 295 -29q350 0 444 469q18 92 18 162q0 225 -188 225q-214 0 -454 -254z" />
<glyph unicode="c" d="M75 535q103 515 593 515q150 0 274 -30l-18 -90q-134 30 -264 30q-385 0 -470 -425q-19 -93 -19 -167q0 -278 265 -278q180 0 348 140l-20 -100q-156 -130 -356 -130q-354 0 -354 346q0 84 21 189z" />
<glyph unicode="d" horiz-adv-x="1127" d="M72 521q106 529 591 529q146 0 263 -20l80 400h105l-286 -1430h-85l30 250q-208 -250 -444 -250q-277 0 -277 313q0 91 23 208zM175 523q-21 -105 -21 -184q0 -239 193 -239q244 0 444 254l115 578q-130 24 -270 24q-375 0 -461 -433z" />
<glyph unicode="e" horiz-adv-x="1075" d="M75 537q103 513 576 513q334 0 334 -209q0 -30 -7 -65q-57 -284 -427 -284h-380q-14 -71 -14 -129q0 -273 310 -273q209 0 376 140l-20 -100q-165 -130 -374 -130q-393 0 -393 359q0 80 19 178zM190 586h378q267 0 306 193q4 21 4 40q0 143 -245 143q-350 0 -443 -376z " />
<glyph unicode="f" horiz-adv-x="612" d="M-168 -303q142 85 202 383l204 1021q76 381 448 381q129 0 226 -40l-18 -90q-91 40 -227 40q-266 0 -325 -293l-9 -49h395l-18 -90h-395l-176 -880q-64 -318 -245 -448z" />
<glyph unicode="g" horiz-adv-x="1127" d="M-48 -330l18 90q143 -50 336 -50q356 0 414 290l50 250q-208 -250 -444 -250q-277 0 -277 313q0 91 23 208q106 529 591 529q213 0 363 -43l-201 -1007q-76 -380 -539 -380q-194 0 -334 50zM175 523q-21 -105 -21 -184q0 -239 193 -239q244 0 444 254l115 578 q-130 24 -270 24q-375 0 -461 -433z" />
<glyph unicode="h" horiz-adv-x="1165" d="M18 0l286 1430h105l-139 -694q247 314 510 314q243 0 243 -209q0 -44 -11 -96l-149 -745h-105l149 745q8 38 8 69q0 142 -159 142q-259 0 -508 -333l-125 -623h-105z" />
<glyph unicode="i" horiz-adv-x="465" d="M38 0l210 1050h105l-210 -1050h-105zM290 1310l24 120h125l-24 -120h-125z" />
<glyph unicode="j" horiz-adv-x="465" d="M-148 -303q142 85 202 383l194 970h105l-194 -970q-64 -318 -245 -448zM290 1310l24 120h125l-24 -120h-125z" />
<glyph unicode="k" horiz-adv-x="1111" d="M8 0l286 1430h105l-132 -662q249 282 519 282q246 0 246 -193q0 -36 -9 -80q-46 -230 -422 -364l293 -413h-129l-265 395l13 63q364 111 404 310q6 29 6 54q0 138 -178 138q-243 0 -499 -294l-133 -666h-105z" />
<glyph unicode="l" horiz-adv-x="465" d="M38 0l286 1430h105l-286 -1430h-105z" />
<glyph unicode="m" horiz-adv-x="1795" d="M18 0l210 1050h85l-42 -312q204 312 452 312q240 0 239 -208q0 -44 -10 -96q213 304 459 304q238 0 238 -222q0 -51 -13 -113l-143 -715h-105l143 715q10 49 10 88q0 153 -150 153q-258 0 -454 -336l-124 -620h-105l143 715q9 47 9 85q0 156 -157 156q-246 0 -456 -336 l-124 -620h-105z" />
<glyph unicode="n" horiz-adv-x="1165" d="M18 0l210 1050h85l-43 -314q247 314 510 314q243 0 243 -209q0 -44 -11 -96l-149 -745h-105l149 745q8 38 8 69q0 142 -159 142q-259 0 -508 -333l-125 -623h-105z" />
<glyph unicode="o" horiz-adv-x="1160" d="M73 525q107 535 577 535q383 0 383 -355q0 -81 -20 -180q-107 -534 -577 -534q-382 0 -382 356q0 80 19 178zM179 529q-18 -89 -18 -160q0 -289 293 -289q365 0 455 449q17 86 17 155q0 286 -294 286q-365 0 -453 -441z" />
<glyph unicode="p" horiz-adv-x="1128" d="M-58 -380l286 1429h85l-30 -249q249 250 465 250q261 0 261 -296q0 -86 -22 -198q-111 -556 -554 -556q-165 0 -305 23l-81 -403h-105zM148 123q165 -29 295 -29q350 0 444 469q18 92 18 162q0 225 -188 225q-214 0 -455 -254z" />
<glyph unicode="q" horiz-adv-x="1127" d="M72 521q106 529 591 529q213 0 363 -43l-277 -1387h-105l126 630q-208 -250 -444 -250q-277 0 -277 313q0 91 23 208zM175 523q-21 -105 -21 -184q0 -239 193 -239q244 0 444 254l115 578q-130 24 -270 24q-375 0 -461 -433z" />
<glyph unicode="r" horiz-adv-x="685" d="M18 0l210 1050h85l-55 -374q216 374 460 374l-21 -104q-238 0 -457 -363l-117 -583h-105z" />
<glyph unicode="s" horiz-adv-x="1030" d="M8 50l20 100q163 -60 332 -60q331 0 373 210q4 21 4 39q0 131 -215 131h-130q-282 0 -282 205q0 35 8 75q60 300 497 300q168 0 333 -50l-20 -100q-163 60 -331 60q-332 0 -374 -210q-5 -25 -5 -46q0 -134 194 -134h130q303 0 303 -203q0 -31 -7 -67q-60 -300 -496 -300 q-169 0 -334 50z" />
<glyph unicode="t" horiz-adv-x="627" d="M71 283l187 937h64l-15 -170h305l-18 -90h-286l-133 -663q-9 -44 -8 -79q0 -128 119 -128h134l-18 -90h-132q-209 0 -209 189q0 42 10 94z" />
<glyph unicode="u" horiz-adv-x="1165" d="M79 305l149 745h105l-149 -745q-8 -41 -8 -74q0 -137 139 -137q279 0 528 333l125 623h105l-210 -1050h-85l43 314q-247 -314 -530 -314q-223 0 -223 204q0 45 11 101z" />
<glyph unicode="v" horiz-adv-x="1030" d="M78 1050h120l192 -959l578 959h120l-657 -1050h-122z" />
<glyph unicode="w" horiz-adv-x="1675" d="M82 520q61 305 206 530h105q-145 -225 -206 -530q-22 -108 -21 -190q0 -240 190 -240q305 0 397 460l100 500h105l-100 -500q-21 -107 -22 -188q0 -272 235 -272q255 0 341 430q32 160 32 299q0 125 -26 231h105q26 -107 26 -231q0 -138 -32 -299q-104 -520 -464 -520 q-293 0 -293 312q0 13 1 27q-118 -339 -423 -339q-279 0 -279 313q0 90 23 207z" />
<glyph unicode="x" horiz-adv-x="1010" d="M-107 0l513 525l-303 525h120l256 -444l434 444h130l-512 -525l302 -525h-120l-256 444l-434 -444h-130z" />
<glyph unicode="y" horiz-adv-x="1165" d="M-10 -330l18 90q143 -50 336 -50q356 0 414 290l63 314q-247 -314 -530 -314q-223 0 -223 204q0 45 11 101l149 745h105l-149 -745q-8 -41 -8 -74q0 -137 139 -137q279 0 528 333l125 623h105l-210 -1050q-76 -380 -539 -380q-194 0 -334 50z" />
<glyph unicode="z" horiz-adv-x="990" d="M-32 0l18 90l819 870h-625l18 90h750l-18 -90l-821 -870h627l-18 -90h-750z" />
<glyph unicode="{" horiz-adv-x="590" d="M64 480l18 90q210 0 286 382q61 302 226 478h105q-165 -176 -226 -478q-70 -352 -275 -427q175 -75 105 -427q-61 -302 34 -478h-105q-95 176 -34 478q76 382 -134 382z" />
<glyph unicode="|" horiz-adv-x="425" d="M-58 -380l362 1810h105l-362 -1810h-105z" />
<glyph unicode="}" horiz-adv-x="590" d="M-183 -380q165 176 226 478q70 352 275 427q-175 75 -105 427q61 302 -34 478h105q95 -176 34 -478q-76 -382 134 -382l-18 -90q-210 0 -286 -382q-61 -302 -226 -478h-105z" />
<glyph unicode="~" d="M60 460l18 90q70 61 174 61q86 0 195 -41q109 -40 199 -40q109 0 190 60l-18 -90q-70 -60 -174 -60q-86 0 -195 40q-109 41 -199 41q-109 0 -190 -61z" />
<glyph unicode="&#xa2;" d="M103 726q95 472 514 511l38 193h115l-38 -189q130 -4 238 -30l-18 -90q-134 30 -264 30q-385 0 -470 -425q-89 -445 246 -445q180 0 348 140l-20 -100q-121 -101 -268 -123l-40 -198h-115l39 192q-408 17 -305 534z" />
<glyph unicode="&#xa3;" horiz-adv-x="1237" d="M-38 -30l18 92q201 75 257 351q23 117 -19 291t-13 323q83 413 621 413q290 0 427 -100l-24 -120q-132 130 -418 130q-424 0 -488 -321q-29 -144 3 -259h446l-18 -90h-414q26 -164 6 -264q-27 -137 -123 -298q41 4 85 4q137 0 289 -43q57 -17 117 -17q145 0 303 98 l-22 -110q-137 -84 -301 -84q-94 0 -195 28q-123 32 -240 32q-153 0 -297 -56z" />
<glyph unicode="&#xa5;" horiz-adv-x="1270" d="M114 379l18 90h389l34 171h-389l18 90h347l-327 700h125l310 -661l580 661h135l-633 -700h373l-18 -90h-416l-34 -171h416l-18 -90h-416l-76 -379h-105l76 379h-389z" />
<glyph unicode="&#xa9;" horiz-adv-x="1785" d="M153 723q143 717 891 717q737 0 594 -717q-147 -733 -884 -733q-748 0 -601 733zM257 719q-128 -639 495 -639q652 0 780 639q126 631 -506 631q-643 0 -769 -631zM481 728q83 416 499 416q165 0 280 -51l-20 -98q-113 58 -264 58q-325 0 -390 -325q-71 -352 254 -352 q151 0 288 58l-20 -98q-135 -51 -300 -51q-416 0 -327 443z" />
<glyph unicode="&#xad;" horiz-adv-x="720" d="M64 480l18 90h500l-18 -90h-500z" />
<glyph unicode="&#xae;" horiz-adv-x="1183" d="M223 1023q85 427 515 427q433 0 348 -427q-83 -415 -516 -415q-418 0 -347 415zM296 1025q-72 -361 285 -361q360 0 432 361q74 369 -286 369q-357 0 -431 -369zM424 756l107 536h229q153 0 127 -128q-21 -105 -181 -155l134 -253h-91l-123 241l9 45q159 25 178 119 q14 74 -72 74h-153l-95 -479h-69z" />
<glyph unicode="&#xb4;" horiz-adv-x="523" d="M196 1191l212 239h159l-287 -239h-84z" />
<glyph unicode="&#x2000;" horiz-adv-x="741" />
<glyph unicode="&#x2001;" horiz-adv-x="1482" />
<glyph unicode="&#x2002;" horiz-adv-x="741" />
<glyph unicode="&#x2003;" horiz-adv-x="1482" />
<glyph unicode="&#x2004;" horiz-adv-x="494" />
<glyph unicode="&#x2005;" horiz-adv-x="370" />
<glyph unicode="&#x2006;" horiz-adv-x="247" />
<glyph unicode="&#x2007;" horiz-adv-x="247" />
<glyph unicode="&#x2008;" horiz-adv-x="185" />
<glyph unicode="&#x2009;" horiz-adv-x="296" />
<glyph unicode="&#x200a;" horiz-adv-x="82" />
<glyph unicode="&#x2010;" horiz-adv-x="720" d="M64 480l18 90h500l-18 -90h-500z" />
<glyph unicode="&#x2011;" horiz-adv-x="720" d="M64 480l18 90h500l-18 -90h-500z" />
<glyph unicode="&#x2012;" horiz-adv-x="720" d="M64 480l18 90h500l-18 -90h-500z" />
<glyph unicode="&#x2013;" horiz-adv-x="1220" d="M64 480l18 90h1000l-18 -90h-1000z" />
<glyph unicode="&#x2014;" horiz-adv-x="1720" d="M64 480l18 90h1500l-18 -90h-1500z" />
<glyph unicode="&#x2018;" horiz-adv-x="350" d="M117 995l237 435h115l-237 -435h-115z" />
<glyph unicode="&#x2019;" horiz-adv-x="375" d="M117 995l237 435h115l-237 -435h-115z" />
<glyph unicode="&#x201c;" horiz-adv-x="650" d="M117 995l237 435h115l-237 -435h-115zM417 995l237 435h115l-237 -435h-115z" />
<glyph unicode="&#x201d;" horiz-adv-x="650" d="M117 995l237 435h115l-237 -435h-115zM417 995l237 435h115l-237 -435h-115z" />
<glyph unicode="&#x2022;" horiz-adv-x="610" d="M113 725q39 195 234 195t156 -195t-234 -195t-156 195z" />
<glyph unicode="&#x2026;" horiz-adv-x="1055" d="M-32 0l25 125h135l-25 -125h-135zM318 0l25 125h135l-25 -125h-135zM668 0l25 125h135l-25 -125h-135z" />
<glyph unicode="&#x202f;" horiz-adv-x="296" />
<glyph unicode="&#x205f;" horiz-adv-x="370" />
<glyph unicode="&#x20ac;" horiz-adv-x="1405" d="M115 735q141 705 891 705q215 0 388 -60l-20 -100q-171 70 -366 70q-568 0 -733 -438h833l-18 -90h-843l-34 -170h843l-18 -90h-833q-19 -482 549 -482q195 0 394 70l-20 -100q-197 -60 -412 -60q-750 0 -601 745z" />
<glyph unicode="&#x2122;" horiz-adv-x="1626" d="M290 1359l14 71h511l-14 -71h-212l-120 -602h-87l120 602h-212zM770 757l134 673h110l136 -561l354 561h106l-134 -673h-78l108 543l-347 -543h-69l-135 543l-108 -543h-77z" />
<glyph unicode="&#xe000;" horiz-adv-x="1050" d="M0 1050h1050v-1050h-1050v1050z" />
</font>
</defs>
</svg>
