<?xml version="1.0" standalone="no"?>
<!DOCTYPE svg PUBLIC "-//W3C//DTD SVG 1.1//EN" "http://www.w3.org/Graphics/SVG/1.1/DTD/svg11.dtd" >
<svg xmlns="http://www.w3.org/2000/svg">
<metadata>
This is a custom SVG webfont generated by Font Squirrel.
Copyright   :  2011 Bernd Montag
Designer    : Bernd Montag
</metadata>
<defs>
<font id="SansationLight" horiz-adv-x="720" >
<font-face units-per-em="2048" ascent="1638" descent="-410" />
<missing-glyph horiz-adv-x="500" />
<glyph unicode=" "  horiz-adv-x="500" />
<glyph unicode="&#x09;" horiz-adv-x="500" />
<glyph unicode="&#xa0;" horiz-adv-x="500" />
<glyph unicode="!" horiz-adv-x="425" d="M160 0v105h105v-105h-105zM160 370v1060h105v-1060h-105z" />
<glyph unicode="&#x22;" horiz-adv-x="625" d="M110 1430h115l-30 -435h-55zM400 1430h115l-30 -435h-55z" />
<glyph unicode="#" horiz-adv-x="1903" d="M110 374l20 94h392l109 438h-401l20 94h402l110 425h100l-110 -425h458l112 430h100l-111 -430h482l-20 -94h-482l-109 -438h491l-20 -94h-492l-100 -379h-100l100 379h-458l-100 -379h-100l99 379h-392zM623 468h457l110 438h-457z" />
<glyph unicode="$" horiz-adv-x="1030" d="M110 940q0 276 369 298v192h95v-190q155 -4 316 -50v-100q-175 60 -343 60q-332 0 -332 -210q0 -180 225 -180h130q350 0 350 -270q0 -267 -346 -296v-194h-95v190q-167 1 -339 50v100q175 -60 344 -60q331 0 331 210q0 170 -245 170h-130q-330 0 -330 280z" />
<glyph unicode="%" horiz-adv-x="1362" d="M110 0l1017 1430h125l-1017 -1430h-125zM110 1180q0 260 278 260q274 0 274 -260q0 -259 -274 -259q-278 0 -278 259zM210 1182q0 -177 178 -177q174 0 174 177q0 174 -174 174q-178 0 -178 -174zM700 249q0 260 278 260q274 0 274 -260q0 -259 -274 -259 q-278 0 -278 259zM800 251q0 -177 178 -177q174 0 174 177q0 174 -174 174q-178 0 -178 -174z" />
<glyph unicode="&#x26;" horiz-adv-x="1295" d="M110 394q0 247 223 333q-223 65 -223 318q0 385 510 385q185 0 360 -50v-90q-185 50 -357 50q-408 0 -408 -290q0 -280 335 -280h468v172h73l22 -172h172v-90h-162v-190q0 -493 -518 -493q-495 0 -495 397zM215 399q0 -309 381 -309q422 0 422 402v188h-466 q-337 0 -337 -281z" />
<glyph unicode="'" horiz-adv-x="335" d="M110 1430h115l-30 -435h-55z" />
<glyph unicode="(" horiz-adv-x="525" d="M110 525q0 453 200 905h105q-200 -452 -200 -905t200 -905h-105q-200 452 -200 905z" />
<glyph unicode=")" horiz-adv-x="525" d="M110 -380q200 452 200 905t-200 905h105q200 -452 200 -905t-200 -905h-105z" />
<glyph unicode="*" horiz-adv-x="830" d="M110 1150l48 150l211 -103l-31 233h156l-30 -232l209 101l48 -147l-228 -43l159 -170l-123 -92l-113 205l-113 -204l-124 89l161 171z" />
<glyph unicode="+" horiz-adv-x="970" d="M110 480v90h330v330h100v-330h320v-90h-320v-330h-100v330h-330z" />
<glyph unicode="," horiz-adv-x="305" d="M25 -250l150 435h105l-150 -435h-105z" />
<glyph unicode="-" d="M110 480v90h500v-90h-500z" />
<glyph unicode="." horiz-adv-x="355" d="M110 0v125h135v-125h-135z" />
<glyph unicode="/" horiz-adv-x="985" d="M35 0l725 1430h115l-725 -1430h-115z" />
<glyph unicode="0" horiz-adv-x="1445" d="M110 713q0 727 618 727q607 0 607 -727q0 -723 -607 -723q-586 0 -618 723zM225 719q0 -639 503 -639q492 0 492 639q0 631 -492 631q-503 0 -503 -631z" />
<glyph unicode="1" horiz-adv-x="605" d="M110 1311v59l255 70v-1440h-105v1311h-150z" />
<glyph unicode="2" horiz-adv-x="1230" d="M110 0v90q875 607 875 930q0 330 -420 330q-220 0 -415 -110v100q195 100 415 100q525 0 525 -420q0 -370 -824 -930h824v-90h-980z" />
<glyph unicode="3" horiz-adv-x="1160" d="M110 50v100q200 -70 400 -70q410 0 410 320q0 280 -332 280h-328v90h325q335 0 335 280q0 300 -410 300q-200 0 -400 -70v100q200 60 400 60q515 0 515 -390q0 -256 -238 -325q238 -65 238 -325q0 -410 -515 -410q-200 0 -400 60z" />
<glyph unicode="4" horiz-adv-x="1220" d="M60 340v90l625 1000h114l-626 -1000h709v568h105v-568l158 -36v-54h-158v-340h-105v340h-822z" />
<glyph unicode="5" horiz-adv-x="1145" d="M115 50v100q200 -70 410 -70q415 0 415 360q0 310 -405 310q-225 0 -420 -50l50 730h824v-90h-736l-34 -522q187 22 316 22q510 0 510 -400q0 -450 -530 -450q-200 0 -400 60z" />
<glyph unicode="6" horiz-adv-x="1250" d="M110 550q0 556 658 923l46 -77q-439 -263 -544 -539q181 63 356 63q524 0 524 -450q0 -480 -513 -480q-527 0 -527 560zM205 556q0 -476 441 -476q403 0 403 390q0 360 -422 360q-214 0 -384 -68q-38 -70 -38 -206z" />
<glyph unicode="7" horiz-adv-x="1135" d="M110 1340v90h970v-90l-662 -1340h-121l672 1340h-859z" />
<glyph unicode="8" horiz-adv-x="1260" d="M110 424q0 243 252 321q-212 85 -212 333q0 366 480 366t480 -366q0 -248 -217 -333q257 -78 257 -321q0 -434 -520 -434t-520 434zM215 418q0 -338 420 -338q410 0 410 338q0 282 -423 282q-407 0 -407 -282zM255 1058q0 -268 380 -268q370 0 370 268q0 292 -383 292 q-367 0 -367 -292z" />
<glyph unicode="9" horiz-adv-x="1210" d="M110 963q0 480 513 480q527 0 527 -560q0 -556 -658 -923l-56 77q449 263 554 539q-181 -63 -356 -63q-524 0 -524 450zM211 963q0 -360 422 -360q214 0 384 68q38 70 38 206q0 476 -441 476q-403 0 -403 -390z" />
<glyph unicode=":" horiz-adv-x="395" d="M150 0v125h135v-125h-135zM150 925v125h135v-125h-135z" />
<glyph unicode=";" horiz-adv-x="545" d="M110 -250l150 435h105l-150 -435h-105zM250 925v125h135v-125h-135z" />
<glyph unicode="&#x3c;" horiz-adv-x="1120" d="M110 470v110l900 420v-110l-813 -369l813 -361v-110z" />
<glyph unicode="=" horiz-adv-x="970" d="M110 330v90h750v-90h-750zM110 630v90h750v-90h-750z" />
<glyph unicode="&#x3e;" horiz-adv-x="1120" d="M110 50v110l813 361l-813 369v110l900 -420v-110z" />
<glyph unicode="?" horiz-adv-x="1135" d="M110 1290v90q210 50 400 50q515 0 515 -390t-497 -390h-123v-280h-105v370h225q395 0 395 300t-410 300q-190 0 -400 -50zM300 0v105h105v-105h-105z" />
<glyph unicode="@" horiz-adv-x="2170" d="M160 540q0 900 924 900q926 0 926 -900q0 -690 -377 -690q-248 0 -248 254q-180 -104 -365 -104q-365 0 -365 297q0 313 416 313q147 0 314 -20v129q0 241 -303 241q-172 0 -342 -50v90q170 50 342 50q408 0 408 -326v-626q0 -158 150 -158q265 0 265 600q0 810 -806 810 q-834 0 -834 -810q0 -830 765 -830v-90q-870 0 -870 920zM760 300q0 -210 260 -210q192 0 365 102v308q-167 20 -314 20q-311 0 -311 -220z" />
<glyph unicode="A" horiz-adv-x="1492" d="M35 0l647 1430h125l650 -1430h-125l-212 480h-601l41 90h521l-343 778l-591 -1348h-112z" />
<glyph unicode="B" horiz-adv-x="1330" d="M160 0v1430h610q408 0 408 -333q0 -244 -296 -349q314 -53 314 -335q0 -413 -447 -413h-589zM265 90h473q346 0 346 320q0 283 -433 283h-80v71q500 45 500 326q0 250 -308 250h-498v-1250z" />
<glyph unicode="C" horiz-adv-x="1405" d="M110 735q0 705 750 705q205 0 400 -60v-90q-195 60 -380 60q-665 0 -665 -615q0 -655 665 -655q185 0 380 60v-90q-195 -60 -400 -60q-750 0 -750 745z" />
<glyph unicode="D" horiz-adv-x="1470" d="M160 0v1430h510q700 0 700 -676q0 -754 -710 -754h-500zM265 90h395q595 0 595 664q0 586 -595 586h-395v-1250z" />
<glyph unicode="E" horiz-adv-x="1248" d="M160 0v1430h939v-90h-834v-570h800v-90h-800v-590h848v-90h-953z" />
<glyph unicode="F" horiz-adv-x="1174" d="M160 0v1430h939v-90h-834v-570h800v-90h-800v-680h-105z" />
<glyph unicode="G" horiz-adv-x="1405" d="M110 735q0 705 750 705q205 0 400 -60v-90q-195 60 -380 60q-665 0 -665 -615q0 -655 646 -655q132 0 294 44v526h105v-594q-183 -66 -383 -66q-767 0 -767 745z" />
<glyph unicode="H" horiz-adv-x="1505" d="M160 0v1430h105v-660h975v660h105v-1430h-105v680h-975v-680h-105z" />
<glyph unicode="I" horiz-adv-x="525" d="M210 0v1430h105v-1430h-105z" />
<glyph unicode="J" horiz-adv-x="650" d="M35 0v90q350 0 350 322v1018h105v-1018q0 -412 -455 -412z" />
<glyph unicode="K" horiz-adv-x="1300" d="M160 0v1430h105v-1430h-105zM460 718v62l642 650h144l-681 -677l705 -753h-157z" />
<glyph unicode="L" horiz-adv-x="1143" d="M160 0v1430h105v-1340h828v-90h-933z" />
<glyph unicode="M" horiz-adv-x="1770" d="M160 0v1430h105l645 -1307l605 1307h95v-1430h-95v1237l-568 -1237h-86l-606 1247v-1247h-95z" />
<glyph unicode="N" horiz-adv-x="1505" d="M160 0v1430h135l955 -1252v1252h95v-1430h-85l-1005 1312v-1312h-95z" />
<glyph unicode="O" horiz-adv-x="1645" d="M110 713q0 727 718 727q707 0 707 -727q0 -723 -707 -723q-718 0 -718 723zM225 719q0 -639 603 -639q592 0 592 639q0 631 -592 631q-603 0 -603 -631z" />
<glyph unicode="P" horiz-adv-x="1263" d="M160 0v1430h600q418 0 418 -393q0 -387 -669 -493l-18 96q570 79 570 389q0 308 -318 308h-478v-1337h-105z" />
<glyph unicode="Q" horiz-adv-x="1645" d="M110 713q0 727 718 727q707 0 707 -727q0 -598 -535 -716l262 -300l-94 -68l-310 361q-748 0 -748 723zM225 719q0 -629 603 -629q592 0 592 629q0 631 -592 631q-603 0 -603 -631z" />
<glyph unicode="R" horiz-adv-x="1235" d="M160 0v1430h590q388 0 388 -343q0 -297 -421 -421l483 -666h-144l-475 663v71q440 65 440 345q0 258 -288 258h-468v-1337h-105z" />
<glyph unicode="S" horiz-adv-x="1310" d="M110 1030q0 410 585 410q240 0 465 -60v-100q-225 70 -465 70q-480 0 -480 -320q0 -260 294 -260h294q397 0 397 -350q0 -430 -554 -430q-271 0 -496 60v110q225 -80 496 -80q449 0 449 340q0 250 -292 250h-294q-399 0 -399 360z" />
<glyph unicode="T" horiz-adv-x="1095" d="M10 1340v90h1075v-90h-490v-1340h-105v1340h-480z" />
<glyph unicode="U" horiz-adv-x="1470" d="M160 552v878h105v-878q0 -472 470 -472t470 472v878h105v-878q0 -562 -575 -562t-575 562z" />
<glyph unicode="V" horiz-adv-x="1492" d="M35 1430h115l601 -1349l594 1349h112l-627 -1430h-165z" />
<glyph unicode="W" horiz-adv-x="1869" d="M35 1430h109l233 -1329l462 1329h105l475 -1342l265 1342h101l-289 -1430h-152l-452 1306l-453 -1306h-149z" />
<glyph unicode="X" horiz-adv-x="1320" d="M35 0l563 715l-563 715h125l500 -636l500 636h125l-562 -715l562 -715h-125l-500 636l-500 -636h-125z" />
<glyph unicode="Y" horiz-adv-x="1250" d="M35 1430h125l463 -830l477 830h115l-536 -930v-500h-105v500z" />
<glyph unicode="Z" horiz-adv-x="1270" d="M135 0v80l894 1260h-874v90h980v-90l-867 -1250h847v-90h-980z" />
<glyph unicode="[" horiz-adv-x="565" d="M160 -380v1810h370v-90h-275v-1630h275v-90h-370z" />
<glyph unicode="\" horiz-adv-x="985" d="M35 1430h115l725 -1430h-115z" />
<glyph unicode="]" horiz-adv-x="565" d="M35 -290h275v1630h-275v90h370v-1810h-370v90z" />
<glyph unicode="^" horiz-adv-x="1070" d="M60 700l400 730h150l400 -730h-110l-369 673l-361 -673h-110z" />
<glyph unicode="_" horiz-adv-x="1070" d="M35 0h1000v-90h-1000v90z" />
<glyph unicode="`" horiz-adv-x="523" d="M100 1430h159l164 -239h-84z" />
<glyph unicode="a" horiz-adv-x="1095" d="M100 297q0 313 416 313q147 0 314 -20v129q0 241 -303 241q-172 0 -342 -50v90q170 50 342 50q408 0 408 -326v-724h-64l-24 104q-197 -104 -382 -104q-365 0 -365 297zM205 300q0 -210 260 -210q192 0 365 102v308q-167 20 -314 20q-311 0 -311 -220z" />
<glyph unicode="b" horiz-adv-x="1178" d="M160 43v1387h105v-430q189 50 325 50q478 0 478 -504q0 -546 -503 -546q-226 0 -405 43zM265 123q161 -29 291 -29q410 0 410 459q0 397 -377 397q-144 0 -324 -54v-773z" />
<glyph unicode="c" horiz-adv-x="1005" d="M110 545q0 505 530 505q150 0 280 -30v-90q-140 30 -270 30q-425 0 -425 -415q0 -455 425 -455q130 0 270 30v-90q-130 -30 -280 -30q-530 0 -530 545z" />
<glyph unicode="d" horiz-adv-x="1190" d="M110 546q0 504 498 504q156 0 317 -50v430h105v-1367q-171 -63 -431 -63q-489 0 -489 546zM222 553q0 -459 387 -459q164 0 316 39v773q-152 54 -316 54q-387 0 -387 -407z" />
<glyph unicode="e" horiz-adv-x="1124" d="M110 537q0 513 473 513q431 0 431 -477q0 -34 -2 -71h-797q0 -412 436 -412q179 0 318 50v-90q-139 -50 -318 -50q-541 0 -541 537zM215 596h698q-6 366 -330 366q-350 0 -368 -366z" />
<glyph unicode="f" horiz-adv-x="636" d="M160 0v1101q0 381 422 381q129 0 234 -40v-90q-99 40 -235 40q-316 0 -316 -293v-49h395v-90h-395v-960h-105z" />
<glyph unicode="g" horiz-adv-x="1187" d="M110 531q0 519 535 519q203 0 382 -43v-1007q0 -380 -463 -380q-194 0 -344 50v90q153 -50 346 -50q356 0 356 290v50q-178 -50 -314 -50q-498 0 -498 531zM212 533q0 -433 397 -433q144 0 313 54v778q-145 24 -285 24q-425 0 -425 -423z" />
<glyph unicode="h" horiz-adv-x="1185" d="M160 0v1430h105v-494q184 114 377 114q383 0 383 -391v-659h-105v702q0 254 -283 254q-189 0 -372 -133v-823h-105z" />
<glyph unicode="i" horiz-adv-x="465" d="M170 1310v120h125v-120h-125zM180 0v1050h105v-1050h-105z" />
<glyph unicode="j" horiz-adv-x="465" d="M55 -303q125 115 125 383v970h105v-970q0 -318 -155 -448zM170 1310v120h125v-120h-125z" />
<glyph unicode="k" horiz-adv-x="1106" d="M150 0v1430h105v-472q183 92 403 92q372 0 372 -303q0 -230 -330 -314l356 -433h-154l-334 435v63q357 41 357 250q0 212 -290 212q-193 0 -380 -94v-866h-105z" />
<glyph unicode="l" horiz-adv-x="465" d="M180 0v1430h105v-1430h-105z" />
<glyph unicode="m" horiz-adv-x="1795" d="M160 0v1050h75l11 -132q161 132 349 132q248 0 321 -144q181 144 367 144q352 0 352 -349v-701h-105v701q0 255 -248 255q-198 0 -327 -136v-820h-105v718q0 238 -256 238q-186 0 -329 -136v-820h-105z" />
<glyph unicode="n" horiz-adv-x="1185" d="M160 0v1050h75l13 -134q201 134 394 134q383 0 383 -331v-719h-105v722q0 234 -283 234q-189 0 -372 -133v-823h-105z" />
<glyph unicode="o" horiz-adv-x="1200" d="M110 525q0 535 490 535t490 -535q0 -534 -490 -534q-488 0 -490 534zM215 529q0 -449 385 -449t385 449q0 441 -385 441t-385 -441z" />
<glyph unicode="p" horiz-adv-x="1177" d="M160 -380v1387q179 43 402 43q505 0 505 -499q0 -551 -508 -551q-126 0 -294 50v-430h-105zM265 154q159 -54 293 -54q407 0 407 453q0 403 -405 403q-140 0 -295 -24v-778z" />
<glyph unicode="q" horiz-adv-x="1187" d="M110 531q0 519 525 519q213 0 392 -43v-1387h-105v430q-178 -50 -314 -50q-498 0 -498 531zM212 533q0 -433 397 -433q144 0 313 54v778q-155 24 -295 24q-415 0 -415 -423z" />
<glyph unicode="r" horiz-adv-x="635" d="M160 0v1050h75l13 -174q158 174 352 174v-84q-188 0 -335 -183v-783h-105z" />
<glyph unicode="s" horiz-adv-x="1030" d="M106 750q0 300 437 300q168 0 343 -50v-100q-175 60 -343 60q-332 0 -332 -210q0 -180 225 -180h134q350 0 350 -270q0 -300 -436 -300q-169 0 -344 50v100q175 -60 344 -60q331 0 331 210q0 170 -245 170h-134q-330 0 -330 280z" />
<glyph unicode="t" horiz-adv-x="627" d="M156 283v937h74l19 -170h315v-90h-306v-663q0 -207 152 -207h154v-90h-152q-256 0 -256 283z" />
<glyph unicode="u" horiz-adv-x="1185" d="M160 391v659h105v-662q0 -294 272 -294q199 0 383 133v823h105v-1050h-77l-12 134q-181 -134 -404 -134q-372 0 -372 391z" />
<glyph unicode="v" horiz-adv-x="1030" d="M10 1050h120l384 -959l386 959h120l-447 -1050h-122z" />
<glyph unicode="w" horiz-adv-x="1539" d="M60 1050h107l226 -923l333 923h77l342 -903l231 903h103l-274 -1050h-109l-331 895l-326 -895h-113z" />
<glyph unicode="x" horiz-adv-x="1010" d="M35 0l408 525l-408 525h125l345 -444l345 444h125l-407 -525l407 -525h-125l-345 444l-345 -444h-125z" />
<glyph unicode="y" horiz-adv-x="1081" d="M35 1050h121l390 -948l384 948h116l-456 -1081q-116 -286 -348 -357l-31 84q182 66 278 288z" />
<glyph unicode="z" horiz-adv-x="1020" d="M110 0v90l675 870h-655v90h780v-90l-667 -870h647v-90h-780z" />
<glyph unicode="{" horiz-adv-x="590" d="M110 480v90q210 0 210 382q0 302 130 478h105q-130 -176 -130 -478q0 -352 -190 -427q190 -75 190 -427q0 -302 130 -478h-105q-130 176 -130 478q0 382 -210 382z" />
<glyph unicode="|" horiz-adv-x="425" d="M160 -380v1810h105v-1810h-105z" />
<glyph unicode="}" horiz-adv-x="590" d="M35 -380q130 176 130 478q0 352 190 427q-190 75 -190 427q0 302 -130 478h105q130 -176 130 -478q0 -382 210 -382v-90q-210 0 -210 -382q0 -302 -130 -478h-105z" />
<glyph unicode="~" horiz-adv-x="970" d="M110 460v90q58 61 162 61q86 0 203 -41q117 -40 207 -40q109 0 178 60v-90q-58 -60 -162 -60q-86 0 -203 40q-117 41 -207 41q-109 0 -178 -61z" />
<glyph unicode="&#xa2;" horiz-adv-x="1005" d="M110 735q0 465 450 502v193h115v-190q130 -4 245 -30v-90q-140 30 -270 30q-425 0 -425 -415q0 -455 425 -455q130 0 270 30v-90q-115 -26 -245 -30v-190h-115v193q-450 40 -450 542z" />
<glyph unicode="&#xa3;" horiz-adv-x="1237" d="M110 -30v92q186 75 186 351q0 117 -77 291t-77 323q0 413 538 413q290 0 447 -100v-120q-158 130 -444 130q-424 0 -424 -321q0 -144 55 -259h446v-90h-414q59 -164 59 -264q0 -137 -64 -298q41 4 85 4q137 0 297 -43q61 -17 121 -17q145 0 283 98v-110 q-120 -84 -284 -84q-94 0 -201 28q-129 32 -246 32q-153 0 -286 -56z" />
<glyph unicode="&#xa5;" horiz-adv-x="1270" d="M60 1430h125l442 -661l448 661h135l-493 -700h373v-90h-416v-171h416v-90h-416v-379h-105v379h-389v90h389v171h-389v90h347z" />
<glyph unicode="&#xa9;" horiz-adv-x="1785" d="M150 723q0 717 748 717q737 0 737 -717q0 -733 -737 -733q-748 0 -748 733zM255 719q0 -639 623 -639q652 0 652 639q0 631 -632 631q-643 0 -643 -631zM477 728q0 416 416 416q165 0 290 -51v-98q-125 58 -276 58q-325 0 -325 -325q0 -352 325 -352q151 0 276 58v-98 q-125 -51 -290 -51q-416 0 -416 443z" />
<glyph unicode="&#xad;" d="M110 480v90h500v-90h-500z" />
<glyph unicode="&#xae;" horiz-adv-x="1183" d="M160 1023q0 427 430 427q433 0 433 -427q0 -415 -433 -415q-418 0 -430 415zM233 1025q0 -361 357 -361q360 0 360 361q0 369 -360 369q-357 0 -357 -369zM414 756v536h229q153 0 153 -128q0 -105 -150 -155l184 -253h-91l-171 241v45q154 25 154 119q0 74 -86 74h-153 v-479h-69z" />
<glyph unicode="&#xb4;" horiz-adv-x="523" d="M100 1191l164 239h159l-239 -239h-84z" />
<glyph unicode="&#x2000;" horiz-adv-x="741" />
<glyph unicode="&#x2001;" horiz-adv-x="1482" />
<glyph unicode="&#x2002;" horiz-adv-x="741" />
<glyph unicode="&#x2003;" horiz-adv-x="1482" />
<glyph unicode="&#x2004;" horiz-adv-x="494" />
<glyph unicode="&#x2005;" horiz-adv-x="370" />
<glyph unicode="&#x2006;" horiz-adv-x="247" />
<glyph unicode="&#x2007;" horiz-adv-x="247" />
<glyph unicode="&#x2008;" horiz-adv-x="185" />
<glyph unicode="&#x2009;" horiz-adv-x="296" />
<glyph unicode="&#x200a;" horiz-adv-x="82" />
<glyph unicode="&#x2010;" d="M110 480v90h500v-90h-500z" />
<glyph unicode="&#x2011;" d="M110 480v90h500v-90h-500z" />
<glyph unicode="&#x2012;" d="M110 480v90h500v-90h-500z" />
<glyph unicode="&#x2013;" horiz-adv-x="1220" d="M110 480v90h1000v-90h-1000z" />
<glyph unicode="&#x2014;" horiz-adv-x="1720" d="M110 480v90h1500v-90h-1500z" />
<glyph unicode="&#x2018;" horiz-adv-x="350" d="M60 995l150 435h115l-150 -435h-115z" />
<glyph unicode="&#x2019;" horiz-adv-x="375" d="M60 995l150 435h115l-150 -435h-115z" />
<glyph unicode="&#x201c;" horiz-adv-x="650" d="M60 995l150 435h115l-150 -435h-115zM360 995l150 435h115l-150 -435h-115z" />
<glyph unicode="&#x201d;" horiz-adv-x="650" d="M60 995l150 435h115l-150 -435h-115zM360 995l150 435h115l-150 -435h-115z" />
<glyph unicode="&#x2022;" horiz-adv-x="610" d="M110 725q0 195 195 195t195 -195t-195 -195t-195 195z" />
<glyph unicode="&#x2026;" horiz-adv-x="1055" d="M110 0v125h135v-125h-135zM460 0v125h135v-125h-135zM810 0v125h135v-125h-135z" />
<glyph unicode="&#x202f;" horiz-adv-x="296" />
<glyph unicode="&#x205f;" horiz-adv-x="370" />
<glyph unicode="&#x20ac;" horiz-adv-x="1405" d="M110 735q0 705 750 705q215 0 400 -60v-100q-185 70 -380 70q-568 0 -645 -438h833v-90h-843v-170h843v-90h-833q77 -482 645 -482q195 0 380 70v-100q-185 -60 -400 -60q-750 0 -750 745z" />
<glyph unicode="&#x2122;" horiz-adv-x="1626" d="M160 1359v71h511v-71h-212v-602h-87v602h-212zM760 757v673h110l248 -561l242 561h106v-673h-78v543l-239 -543h-69l-243 543v-543h-77z" />
<glyph unicode="&#xe000;" horiz-adv-x="1050" d="M0 1050h1050v-1050h-1050v1050z" />
</font>
</defs>
</svg>
