<?xml version="1.0" standalone="no"?>
<!DOCTYPE svg PUBLIC "-//W3C//DTD SVG 1.1//EN" "http://www.w3.org/Graphics/SVG/1.1/DTD/svg11.dtd" >
<svg xmlns="http://www.w3.org/2000/svg">
<metadata>
This is a custom SVG webfont generated by Font Squirrel.
Copyright   :  2011 Bernd Montag
Designer    : Bernd Montag
</metadata>
<defs>
<font id="SansationItalic" horiz-adv-x="700" >
<font-face units-per-em="2048" ascent="1638" descent="-410" />
<missing-glyph horiz-adv-x="500" />
<glyph unicode=" "  horiz-adv-x="500" />
<glyph unicode="&#x09;" horiz-adv-x="500" />
<glyph unicode="&#xa0;" horiz-adv-x="500" />
<glyph unicode="!" horiz-adv-x="485" d="M8 0l37 185h185l-37 -185h-185zM82 370l212 1060h185l-212 -1060h-185z" />
<glyph unicode="&#x22;" horiz-adv-x="755" d="M187 995l57 435h185l-117 -435h-125zM557 995l57 435h185l-117 -435h-125z" />
<glyph unicode="#" horiz-adv-x="1893" d="M27 344l61 154h402l164 378h-401l61 154h412l179 395h180l-179 -395h378l182 400h180l-181 -400h392l-61 -154h-402l-164 -378h401l-61 -154h-412l-160 -349h-180l160 349h-378l-160 -349h-180l159 349h-392zM671 498h377l165 378h-377z" />
<glyph unicode="$" horiz-adv-x="1050" d="M46 240l32 160q173 -60 362 -60q251 0 281 150q28 140 -147 140h-150q-340 0 -278 310q55 276 429 298l38 192h175l-39 -194q132 -10 257 -46l-32 -160q-173 60 -361 60q-262 0 -292 -150q-28 -140 137 -140h150q360 0 298 -310q-50 -251 -364 -292l-40 -198h-175l38 191 q-165 5 -319 49z" />
<glyph unicode="%" horiz-adv-x="1422" d="M-42 0l1303 1430h205l-1303 -1430h-205zM194 1180q52 260 330 260q274 0 222 -260q-52 -259 -326 -259q-278 0 -226 259zM324 1182q-29 -147 119 -147q144 0 173 147q29 144 -115 144q-148 0 -177 -144zM678 249q52 260 330 260q274 0 222 -260q-52 -259 -326 -259 q-278 0 -226 259zM808 251q-29 -147 119 -147q144 0 173 147q29 144 -115 144q-148 0 -177 -144z" />
<glyph unicode="&#x26;" horiz-adv-x="1275" d="M36 394q50 247 260 333q-176 85 -129 318q77 385 587 385q185 0 350 -50l-30 -150q-165 50 -337 50q-338 0 -384 -230q-50 -250 205 -250h388l28 142h63l74 -142h182l-30 -150h-162l-32 -160q-99 -493 -617 -493q-495 0 -416 397zM222 399q-49 -249 252 -249 q342 0 410 342l32 158h-386q-257 0 -308 -251z" />
<glyph unicode="'" horiz-adv-x="385" d="M187 995l57 435h185l-117 -435h-125z" />
<glyph unicode="(" horiz-adv-x="585" d="M63 525q90 453 381 905h185q-291 -452 -381 -905q-91 -453 19 -905h-185q-110 452 -19 905z" />
<glyph unicode=")" horiz-adv-x="585" d="M-118 -380q290 452 381 905t-19 905h185q110 -452 19 -905t-381 -905h-185z" />
<glyph unicode="*" horiz-adv-x="810" d="M188 1150l78 150l190 -103l16 233h156l-76 -232l229 101l18 -147l-236 -43l125 -170l-142 -92l-72 205l-153 -204l-107 89l196 171z" />
<glyph unicode="+" horiz-adv-x="950" d="M48 450l30 150h300l60 300h150l-60 -300h300l-30 -150h-300l-60 -300h-150l60 300h-300z" />
<glyph unicode="," horiz-adv-x="385" d="M-167 -250l237 435h185l-237 -435h-185z" />
<glyph unicode="-" d="M48 450l30 150h500l-30 -150h-500z" />
<glyph unicode="." horiz-adv-x="385" d="M-42 0l37 185h185l-37 -185h-185z" />
<glyph unicode="/" horiz-adv-x="980" d="M-117 0l1011 1430h205l-1011 -1430h-205z" />
<glyph unicode="0" horiz-adv-x="1445" d="M111 713q145 727 763 727q607 0 462 -727q-145 -723 -752 -723q-618 0 -473 723zM307 719q-116 -579 307 -579q412 0 528 579q114 571 -298 571q-423 0 -537 -571z" />
<glyph unicode="1" horiz-adv-x="645" d="M108 0l250 1251h-150l18 89l355 100l-288 -1440h-185z" />
<glyph unicode="2" horiz-adv-x="1145" d="M-82 0l30 150q904 547 969 870q54 270 -286 270q-220 0 -437 -110l32 160q215 100 435 100q525 0 441 -420q-74 -370 -889 -870h715l-30 -150h-980z" />
<glyph unicode="3" horiz-adv-x="1150" d="M-32 50l32 160q186 -70 386 -70q330 0 382 260q50 250 -202 250h-328l30 150h325q255 0 305 250q48 240 -282 240q-200 0 -414 -70l32 160q212 60 412 60q515 0 437 -390q-47 -236 -253 -325q171 -85 123 -325q-82 -410 -597 -410q-200 0 -388 60z" />
<glyph unicode="4" horiz-adv-x="1220" d="M-14 340l30 150l763 940h194l-764 -940h559l102 508h185l-102 -508l133 -76l-15 -74h-148l-68 -340h-185l68 340h-752z" />
<glyph unicode="5" horiz-adv-x="1175" d="M-7 50l32 160q186 -70 386 -70q365 0 427 310q52 260 -303 260q-225 0 -418 -40l182 760h864l-30 -150h-706l-112 -442q121 22 250 22q540 0 458 -410q-92 -460 -652 -460q-190 0 -378 60z" />
<glyph unicode="6" horiz-adv-x="1260" d="M68 550q111 556 843 923l70 -127q-397 -176 -610 -479q142 53 327 53q514 0 424 -450q-96 -480 -639 -480q-527 0 -415 560zM244 556q-83 -416 278 -416q353 0 419 330q60 300 -282 300q-214 0 -354 -48q-40 -60 -61 -166z" />
<glyph unicode="7" horiz-adv-x="1090" d="M70 0l878 1280h-769l30 150h950l-30 -150l-858 -1280h-201z" />
<glyph unicode="8" horiz-adv-x="1240" d="M43 424q44 223 276 321q-151 105 -105 333q73 366 553 366t407 -366q-46 -228 -244 -333q197 -98 153 -321q-87 -434 -607 -434t-433 434zM227 418q-56 -278 284 -278q330 0 386 278q50 252 -293 252q-327 0 -377 -252zM395 1058q-48 -238 252 -238q290 0 338 238 q46 232 -257 232q-287 0 -333 -232z" />
<glyph unicode="9" horiz-adv-x="1260" d="M149 953q96 480 639 480q527 0 415 -560q-111 -556 -843 -923l-70 127q397 176 610 479q-144 -63 -329 -63q-514 0 -422 460zM330 953q-60 -300 282 -300q214 0 354 48q40 60 61 166q83 416 -278 416q-353 0 -419 -330z" />
<glyph unicode=":" horiz-adv-x="435" d="M8 0l37 185h185l-37 -185h-185zM181 865l37 185h185l-37 -185h-185z" />
<glyph unicode=";" horiz-adv-x="535" d="M-92 -250l237 435h185l-237 -435h-185zM281 865l37 185h185l-37 -185h-185z" />
<glyph unicode="&#x3c;" horiz-adv-x="1100" d="M48 450l30 150l980 400l-30 -150l-809 -329l679 -321l-30 -150z" />
<glyph unicode="=" horiz-adv-x="950" d="M18 300l30 150h750l-30 -150h-750zM78 600l30 150h750l-30 -150h-750z" />
<glyph unicode="&#x3e;" horiz-adv-x="1100" d="M-32 50l30 150l807 321l-677 329l30 150l820 -400l-30 -150z" />
<glyph unicode="?" horiz-adv-x="1115" d="M108 0l37 185h185l-37 -185h-185zM182 370l86 430h265q315 0 363 240t-282 240q-190 0 -410 -50l30 150q220 50 410 50q515 0 437 -390t-575 -390h-83l-56 -280h-185z" />
<glyph unicode="@" horiz-adv-x="2150" d="M116 540q180 900 1104 900q926 0 746 -900q-138 -690 -535 -690q-288 0 -235 264l25 126q-171 -240 -402 -240q-358 0 -256 511q108 539 633 539q213 0 363 -43l-177 -889q-24 -118 86 -118q205 0 313 540q150 750 -576 750q-754 0 -904 -750q-154 -770 531 -770 l-30 -150q-870 0 -686 920zM746 513q-71 -353 136 -353q214 0 374 254l91 458q-50 24 -190 24q-335 0 -411 -383z" />
<glyph unicode="A" horiz-adv-x="1472" d="M-117 0l893 1430h205l324 -1430h-195l-95 450h-473l81 150h360l-137 648l-761 -1248h-202z" />
<glyph unicode="B" horiz-adv-x="1330" d="M28 0l286 1430h610q350 0 350 -246q0 -40 -9 -87q-48 -244 -335 -349q228 -44 228 -241q0 -39 -9 -84q-85 -423 -532 -423h-589zM243 150h393q256 0 308 260q7 33 7 61q0 192 -299 192h-80l24 121q421 55 469 296q6 30 6 55q0 145 -194 145h-408z" />
<glyph unicode="C" horiz-adv-x="1385" d="M105 735q141 705 891 705q215 0 388 -60l-32 -160q-171 70 -366 70q-585 0 -696 -555q-20 -101 -20 -184q0 -411 486 -411q195 0 394 70l-32 -160q-197 -60 -412 -60q-626 0 -626 519q0 103 25 226z" />
<glyph unicode="D" horiz-adv-x="1500" d="M28 0l286 1430h520q597 0 597 -477q0 -91 -22 -199q-151 -754 -861 -754h-520zM243 150h335q525 0 646 604q18 88 18 161q0 365 -438 365h-335z" />
<glyph unicode="E" horiz-adv-x="1230" d="M28 0l286 1430h935l-30 -150h-750l-96 -480h715l-30 -150h-715l-100 -500h765l-30 -150h-950z" />
<glyph unicode="F" horiz-adv-x="1155" d="M28 0l286 1430h935l-30 -150h-750l-96 -480h715l-30 -150h-715l-130 -650h-185z" />
<glyph unicode="G" horiz-adv-x="1385" d="M105 735q141 705 891 705q215 0 388 -60l-32 -160q-171 70 -366 70q-585 0 -696 -555q-20 -102 -20 -186q0 -409 477 -409q92 0 209 24l97 486h185l-119 -594q-186 -66 -386 -66q-652 0 -652 525q0 100 24 220z" />
<glyph unicode="H" horiz-adv-x="1555" d="M28 0l286 1430h185l-126 -630h845l126 630h185l-286 -1430h-185l130 650h-845l-130 -650h-185z" />
<glyph unicode="I" horiz-adv-x="585" d="M58 0l286 1430h185l-286 -1430h-185z" />
<glyph unicode="J" horiz-adv-x="690" d="M-117 0l30 150q300 0 352 262l204 1018h185l-204 -1018q-82 -412 -567 -412z" />
<glyph unicode="K" horiz-adv-x="1435" d="M28 0l286 1430h185l-286 -1430h-185zM513 698l22 112l706 620h244l-790 -681l568 -749h-247z" />
<glyph unicode="L" horiz-adv-x="1153" d="M28 0l286 1430h185l-256 -1280h748l-30 -150h-933z" />
<glyph unicode="M" horiz-adv-x="1840" d="M28 0l286 1430h235l286 -1193l754 1193h225l-286 -1430h-165l231 1153l-739 -1153h-146l-285 1153l-231 -1153h-165z" />
<glyph unicode="N" horiz-adv-x="1575" d="M28 0l286 1430h185l641 -1169l234 1169h175l-286 -1430h-185l-638 1189l-237 -1189h-175z" />
<glyph unicode="O" horiz-adv-x="1665" d="M121 713q145 727 863 727q587 0 587 -501q0 -103 -25 -226q-145 -723 -852 -723q-597 0 -597 500q0 102 24 223zM317 719q-21 -105 -21 -191q0 -388 428 -388q512 0 628 579q21 104 21 189q0 382 -419 382q-523 0 -637 -571z" />
<glyph unicode="P" horiz-adv-x="1263" d="M28 0l286 1430h580q373 0 372 -277q0 -49 -11 -106q-83 -417 -700 -509l-7 156q453 65 509 345q7 37 7 68q0 170 -218 170h-378l-255 -1277h-185z" />
<glyph unicode="Q" horiz-adv-x="1665" d="M121 713q145 727 863 727q587 0 587 -501q0 -102 -25 -226q-135 -673 -764 -719q26 -231 283 -234q110 0 196 30l-30 -150q-86 -30 -186 -30q-443 0 -445 383q-504 34 -504 495q0 102 25 225zM317 719q-21 -105 -21 -191q0 -388 428 -388q512 0 628 579q21 104 21 189 q0 382 -419 382q-523 0 -637 -571z" />
<glyph unicode="R" horiz-adv-x="1305" d="M28 0l286 1430h610q349 0 349 -251q0 -42 -10 -92q-55 -279 -481 -433l356 -654h-224l-326 643l24 121q403 65 453 315q6 29 6 54q0 144 -195 144h-408l-255 -1277h-185z" />
<glyph unicode="S" horiz-adv-x="1290" d="M18 50l34 170q209 -80 470 -80q369 0 423 270q7 33 7 62q0 168 -233 168h-184q-383 0 -383 283q0 49 12 107q82 410 657 410q250 0 453 -60l-34 -170q-199 80 -449 80q-390 0 -442 -260q-7 -34 -7 -63q0 -167 225 -167h184q390 0 391 -285q0 -49 -12 -105 q-84 -420 -638 -420q-261 0 -474 60z" />
<glyph unicode="T" horiz-adv-x="1185" d="M164 1280l30 150h1085l-30 -150h-450l-256 -1280h-185l256 1280h-450z" />
<glyph unicode="U" horiz-adv-x="1510" d="M128 552l176 878h185l-176 -878q-14 -69 -14 -126q0 -286 342 -286q410 0 492 412l176 878h185l-176 -878q-112 -562 -707 -562q-501 0 -501 398q0 75 18 164z" />
<glyph unicode="V" horiz-adv-x="1472" d="M169 1430h185l276 -1238l759 1238h202l-893 -1430h-205z" />
<glyph unicode="W" horiz-adv-x="1900" d="M143 0l51 1430h179l-48 -1244l653 1244h185l184 -1244l476 1244h171l-555 -1430h-252l-164 1198l-631 -1198h-249z" />
<glyph unicode="X" horiz-adv-x="1410" d="M-117 0l706 715l-420 715h215l336 -572l564 572h235l-705 -715l419 -715h-215l-336 572l-564 -572h-235z" />
<glyph unicode="Y" horiz-adv-x="1300" d="M169 1430h198l263 -747l567 747h222l-732 -930l-100 -500h-185l100 500z" />
<glyph unicode="Z" horiz-adv-x="1330" d="M-17 0l30 150l1090 1130h-844l30 150h1060l-30 -150l-1083 -1130h837l-30 -150h-1060z" />
<glyph unicode="[" horiz-adv-x="650" d="M-68 -380l362 1810h450l-30 -150h-265l-302 -1510h265l-30 -150h-450z" />
<glyph unicode="\" horiz-adv-x="970" d="M169 1430h195l439 -1430h-195z" />
<glyph unicode="]" horiz-adv-x="650" d="M-168 -380l30 150h265l302 1510h-265l30 150h450l-362 -1810h-450z" />
<glyph unicode="^" horiz-adv-x="1050" d="M48 700l546 730h150l254 -730h-150l-208 603l-442 -603h-150z" />
<glyph unicode="_" horiz-adv-x="1050" d="M-147 -150l30 150h1000l-30 -150h-1000z" />
<glyph unicode="`" horiz-adv-x="603" d="M244 1430h239l116 -239h-164z" />
<glyph unicode="a" horiz-adv-x="1147" d="M60 511q108 539 633 539q213 0 363 -43l-201 -1007h-165l30 250q-168 -250 -404 -250q-279 0 -279 310q0 88 23 201zM243 513q-18 -90 -19 -157q0 -196 155 -196q214 0 374 254l91 458q-50 24 -190 24q-335 0 -411 -383z" />
<glyph unicode="b" horiz-adv-x="1148" d="M17 43l277 1387h185l-126 -630q169 250 405 250q282 0 283 -301q0 -81 -21 -183q-114 -566 -637 -566q-226 0 -366 43zM230 183q45 -29 175 -29q350 0 432 409q16 78 16 138q0 189 -158 189q-214 0 -374 -254z" />
<glyph unicode="c" horiz-adv-x="965" d="M65 535q103 515 603 515q150 0 274 -30l-30 -150q-124 30 -284 30q-305 0 -378 -365q-17 -87 -17 -154q0 -231 205 -231q200 0 356 130l-30 -150q-156 -130 -366 -130q-354 0 -354 346q0 84 21 189z" />
<glyph unicode="d" horiz-adv-x="1147" d="M60 511q108 539 633 539q99 0 185 -9l78 389h185l-286 -1430h-165l30 250q-168 -250 -404 -250q-279 0 -279 310q0 88 23 201zM243 513q-18 -90 -19 -157q0 -196 155 -196q214 0 374 254l91 458q-50 24 -190 24q-335 0 -411 -383z" />
<glyph unicode="e" horiz-adv-x="1085" d="M65 537q103 513 586 513q360 0 359 -228q0 -33 -7 -71q-58 -289 -433 -289h-335q-11 -54 -10 -99q0 -213 244 -213q229 0 394 130l-30 -150q-165 -130 -394 -130q-393 0 -393 359q0 80 19 178zM266 616h335q190 0 218 138q3 17 3 32q0 116 -201 116q-280 0 -355 -286z " />
<glyph unicode="f" horiz-adv-x="660" d="M-176 -293q152 135 200 373l204 1021q76 381 488 381q129 0 236 -40l-30 -150q-101 40 -237 40q-226 0 -271 -223l-11 -59h325l-30 -150h-325l-164 -820q-64 -318 -251 -478z" />
<glyph unicode="g" horiz-adv-x="1147" d="M-38 -330l30 150q143 -50 336 -50q296 0 342 230l50 250q-168 -250 -404 -250q-279 0 -279 310q0 88 23 201q108 539 633 539q213 0 363 -43l-201 -1007q-76 -380 -559 -380q-194 0 -334 50zM243 513q-18 -90 -18 -157q0 -196 154 -196q214 0 374 254l91 458 q-50 24 -190 24q-335 0 -411 -383z" />
<glyph unicode="h" horiz-adv-x="1205" d="M8 0l286 1430h185l-137 -684q195 304 488 304q238 0 238 -225q0 -52 -13 -116l-142 -709h-185l142 712q6 31 6 57q0 127 -152 127q-209 0 -418 -333l-113 -563h-185z" />
<glyph unicode="i" horiz-adv-x="525" d="M28 0l210 1050h185l-210 -1050h-185zM279 1255l35 175h185l-35 -175h-185z" />
<glyph unicode="j" horiz-adv-x="525" d="M-156 -293q152 135 200 373l194 970h185l-194 -970q-64 -318 -251 -478zM279 1255l35 175h185l-35 -175h-185z" />
<glyph unicode="k" horiz-adv-x="1176" d="M8 0l286 1430h185l-132 -662q209 282 479 282q272 0 272 -209q0 -38 -9 -84q-44 -220 -381 -358l266 -399h-234l-227 385l19 93q333 81 371 270q5 24 5 44q0 108 -135 108q-233 0 -459 -294l-121 -606h-185z" />
<glyph unicode="l" horiz-adv-x="505" d="M18 0l286 1430h185l-286 -1430h-185z" />
<glyph unicode="m" horiz-adv-x="1805" d="M8 0l210 1050h165l-42 -312q184 312 462 312q201 0 200 -196q0 -48 -11 -108q193 304 469 304q208 0 208 -213q0 -55 -14 -125l-142 -712h-185l142 712q7 37 7 66q0 118 -118 118q-198 0 -393 -333l-113 -563h-185l142 712q7 37 7 67q0 117 -116 117q-206 0 -395 -333 l-113 -563h-185z" />
<glyph unicode="n" horiz-adv-x="1205" d="M8 0l210 1050h165l-45 -324q199 324 492 324q238 0 238 -225q0 -52 -13 -116l-142 -709h-185l142 712q6 31 6 57q0 127 -152 127q-209 0 -418 -333l-113 -563h-185z" />
<glyph unicode="o" horiz-adv-x="1160" d="M63 525q105 525 585 525q394 0 394 -353q0 -77 -19 -172q-105 -524 -585 -524q-393 0 -393 355q0 76 18 169zM249 529q-16 -78 -15 -139q0 -240 234 -240q295 0 371 379q15 74 15 134q0 237 -236 237q-295 0 -369 -371z" />
<glyph unicode="p" horiz-adv-x="1148" d="M-68 -380l286 1430h165l-30 -250q169 250 405 250q282 0 282 -300q0 -81 -21 -184q-113 -566 -636 -566q-103 0 -188 9l-78 -389h-185zM230 183q45 -29 175 -29q350 0 432 409q16 78 16 138q0 189 -158 189q-214 0 -375 -254z" />
<glyph unicode="q" horiz-adv-x="1147" d="M60 511q108 539 633 539q213 0 363 -43l-277 -1387h-185l126 630q-168 -250 -404 -250q-279 0 -279 310q0 88 23 201zM243 513q-18 -90 -18 -157q0 -196 154 -196q214 0 374 254l91 458q-50 24 -190 24q-335 0 -411 -383z" />
<glyph unicode="r" horiz-adv-x="710" d="M8 0l210 1050h165l-47 -334q178 334 422 334l-33 -164q-238 0 -419 -323l-113 -563h-185z" />
<glyph unicode="s" horiz-adv-x="1020" d="M-12 50l32 160q173 -60 362 -60q251 0 281 150q4 19 4 36q0 104 -151 104h-140q-288 0 -288 222q0 40 10 88q60 300 497 300q188 0 363 -50l-32 -160q-173 60 -361 60q-262 0 -292 -150q-4 -20 -4 -38q0 -102 141 -102h140q307 0 307 -226q0 -39 -9 -84 q-60 -300 -496 -300q-189 0 -364 50z" />
<glyph unicode="t" horiz-adv-x="675" d="M65 283l187 937h116l6 -170h284l-30 -150h-255l-121 -603q-5 -27 -5 -50q0 -97 103 -97h128l-30 -150h-176q-217 0 -217 191q0 42 10 92z" />
<glyph unicode="u" horiz-adv-x="1205" d="M76 341l142 709h185l-142 -712q-6 -31 -6 -57q0 -127 152 -127q209 0 418 333l113 563h185l-210 -1050h-165l45 324q-199 -324 -492 -324q-238 0 -238 225q0 52 13 116z" />
<glyph unicode="v" horiz-adv-x="1000" d="M68 1050h200l136 -823l464 823h200l-637 -1050h-172z" />
<glyph unicode="w" horiz-adv-x="1675" d="M88 550q55 275 200 500h185q-145 -225 -200 -500q-22 -108 -22 -188q0 -212 157 -212q225 0 305 400l100 500h185l-100 -500q-21 -105 -21 -182q0 -218 166 -218q215 0 295 400q28 138 28 262.5t-28 237.5h185q28 -112 28 -237t-28 -263q-110 -550 -510 -550 q-235 0 -268 259q-132 -259 -367 -259q-314 0 -314 338q0 93 24 212z" />
<glyph unicode="x" horiz-adv-x="1050" d="M-117 0l498 535l-288 515h205l219 -411l361 411h215l-497 -535l287 -515h-205l-219 401l-361 -401h-215z" />
<glyph unicode="y" horiz-adv-x="1205" d="M20 -330l30 150q143 -50 336 -50q296 0 342 230l65 324q-199 -324 -492 -324q-238 0 -238 225q0 52 13 116l142 709h185l-142 -712q-6 -31 -6 -57q0 -127 152 -127q209 0 418 333l113 563h185l-210 -1050q-76 -380 -559 -380q-194 0 -334 50z" />
<glyph unicode="z" horiz-adv-x="1000" d="M-42 0l28 140l747 760h-575l30 150h780l-30 -150l-739 -760h577l-28 -140h-790z" />
<glyph unicode="{" horiz-adv-x="675" d="M48 450l30 150q210 0 280 352q61 302 226 478h185q-165 -176 -226 -478q-70 -352 -295 -427q195 -75 125 -427q-61 -302 34 -478h-185q-95 176 -34 478q70 352 -140 352z" />
<glyph unicode="|" horiz-adv-x="485" d="M-68 -380l362 1810h185l-362 -1810h-185z" />
<glyph unicode="}" horiz-adv-x="675" d="M-168 -380q165 176 226 478q70 352 295 427q-195 75 -125 427q61 302 -34 478h185q95 -176 34 -478q-70 -352 140 -352l-30 -150q-210 0 -280 -352q-61 -302 -226 -478h-185z" />
<glyph unicode="~" horiz-adv-x="950" d="M44 430l30 150q70 61 174 61q86 0 195 -41q109 -40 199 -40q109 0 190 60l-30 -150q-70 -60 -174 -60q-86 0 -195 40q-109 41 -199 41q-109 0 -190 -61z" />
<glyph unicode="&#xa2;" horiz-adv-x="980" d="M102 723q92 457 496 509l40 198h175l-39 -194q110 -5 205 -28l-30 -150q-124 30 -284 30q-305 0 -378 -365q-77 -385 188 -385q200 0 356 130l-30 -150q-104 -87 -234 -116l-40 -202h-175l38 190q-389 27 -288 533z" />
<glyph unicode="&#xa3;" horiz-adv-x="1217" d="M-48 -30l30 152q201 75 245 291q23 117 -19 291t-13 323q83 413 641 413q270 0 407 -100l-36 -180q-132 130 -408 130q-354 0 -406 -261q-29 -144 -1 -229h376l-30 -150h-324q22 -134 2 -234q-27 -137 -111 -238q22 4 51 4q91 0 243 -43q57 -17 117 -17q145 0 303 98 l-34 -170q-137 -84 -301 -84q-94 0 -195 28q-123 32 -240 32q-153 0 -297 -56z" />
<glyph unicode="&#xa5;" horiz-adv-x="1250" d="M92 319l30 150h349l22 111h-349l30 150h287l-267 700h198l237 -627l493 627h222l-573 -700h313l-30 -150h-376l-22 -111h376l-30 -150h-376l-64 -319h-185l64 319h-349z" />
<glyph unicode="&#xa9;" horiz-adv-x="1785" d="M153 723q143 717 891 717q737 0 594 -717q-147 -733 -884 -733q-748 0 -601 733zM257 719q-128 -639 495 -639q652 0 780 639q126 631 -506 631q-643 0 -769 -631zM481 728q83 416 499 416q165 0 280 -51l-20 -98q-113 58 -264 58q-325 0 -390 -325q-71 -352 254 -352 q151 0 288 58l-20 -98q-135 -51 -300 -51q-416 0 -327 443z" />
<glyph unicode="&#xad;" d="M48 450l30 150h500l-30 -150h-500z" />
<glyph unicode="&#xae;" horiz-adv-x="1163" d="M213 1023q85 427 515 427q433 0 348 -427q-83 -415 -516 -415q-418 0 -347 415zM286 1025q-72 -361 285 -361q360 0 432 361q74 369 -286 369q-357 0 -431 -369zM414 756l107 536h229q153 0 127 -128q-21 -105 -181 -155l134 -253h-91l-123 241l9 45q159 25 178 119 q14 74 -72 74h-153l-95 -479h-69z" />
<glyph unicode="&#xb4;" horiz-adv-x="603" d="M196 1191l212 239h239l-287 -239h-164z" />
<glyph unicode="&#x2000;" horiz-adv-x="741" />
<glyph unicode="&#x2001;" horiz-adv-x="1482" />
<glyph unicode="&#x2002;" horiz-adv-x="741" />
<glyph unicode="&#x2003;" horiz-adv-x="1482" />
<glyph unicode="&#x2004;" horiz-adv-x="494" />
<glyph unicode="&#x2005;" horiz-adv-x="370" />
<glyph unicode="&#x2006;" horiz-adv-x="247" />
<glyph unicode="&#x2007;" horiz-adv-x="247" />
<glyph unicode="&#x2008;" horiz-adv-x="185" />
<glyph unicode="&#x2009;" horiz-adv-x="296" />
<glyph unicode="&#x200a;" horiz-adv-x="82" />
<glyph unicode="&#x2010;" d="M48 450l30 150h500l-30 -150h-500z" />
<glyph unicode="&#x2011;" d="M48 450l30 150h500l-30 -150h-500z" />
<glyph unicode="&#x2012;" d="M48 450l30 150h500l-30 -150h-500z" />
<glyph unicode="&#x2013;" horiz-adv-x="1200" d="M48 450l30 150h1000l-30 -150h-1000z" />
<glyph unicode="&#x2014;" horiz-adv-x="1700" d="M48 450l30 150h1500l-30 -150h-1500z" />
<glyph unicode="&#x2018;" horiz-adv-x="410" d="M107 995l237 435h185l-237 -435h-185z" />
<glyph unicode="&#x2019;" horiz-adv-x="435" d="M107 995l237 435h185l-237 -435h-185z" />
<glyph unicode="&#x201c;" horiz-adv-x="780" d="M107 995l237 435h185l-237 -435h-185zM477 995l237 435h185l-237 -435h-185z" />
<glyph unicode="&#x201d;" horiz-adv-x="780" d="M107 995l237 435h185l-237 -435h-185zM477 995l237 435h185l-237 -435h-185z" />
<glyph unicode="&#x2022;" horiz-adv-x="630" d="M103 725q43 215 258 215t172 -215t-258 -215t-172 215z" />
<glyph unicode="&#x2026;" horiz-adv-x="1185" d="M-42 0l37 185h185l-37 -185h-185zM358 0l37 185h185l-37 -185h-185zM758 0l37 185h185l-37 -185h-185z" />
<glyph unicode="&#x202f;" horiz-adv-x="296" />
<glyph unicode="&#x205f;" horiz-adv-x="370" />
<glyph unicode="&#x20ac;" horiz-adv-x="1385" d="M105 735q141 705 891 705q215 0 388 -60l-32 -160q-171 70 -366 70q-498 0 -655 -348h773l-30 -150h-793l-22 -110h793l-30 -150h-773q-1 -392 507 -392q195 0 394 70l-32 -160q-197 -60 -412 -60q-750 0 -601 745z" />
<glyph unicode="&#x2122;" horiz-adv-x="1606" d="M280 1359l14 71h511l-14 -71h-212l-120 -602h-87l120 602h-212zM760 757l134 673h110l136 -561l354 561h106l-134 -673h-78l108 543l-347 -543h-69l-135 543l-108 -543h-77z" />
<glyph unicode="&#xe000;" horiz-adv-x="1050" d="M0 1050h1050v-1050h-1050v1050z" />
</font>
</defs>
</svg>
