<?xml version="1.0" standalone="no"?>
<!DOCTYPE svg PUBLIC "-//W3C//DTD SVG 1.1//EN" "http://www.w3.org/Graphics/SVG/1.1/DTD/svg11.dtd" >
<svg>
<metadata>
Created by FontForge 20090914 at Sun Jan 29 17:44:09 2012
 By www-data
Copyright (c) 2011 by Vissol Ltd. All rights reserved.
</metadata>
<defs>
<font id="MavenProRegular" horiz-adv-x="1529" >
  <font-face 
    font-family="Maven Pro"
    font-weight="400"
    font-stretch="normal"
    units-per-em="2048"
    panose-1="2 0 0 0 0 0 0 0 0 0"
    ascent="1638"
    descent="-410"
    x-height="1022"
    cap-height="1366"
    bbox="-76 -430 1921 1759"
    underline-thickness="102"
    underline-position="-102"
    unicode-range="U+0020-U+FB04"
  />
<missing-glyph horiz-adv-x="1024" 
 />
    <glyph glyph-name=".notdef" horiz-adv-x="1024" 
 />
    <glyph glyph-name="space" unicode=" " horiz-adv-x="692" 
 />
    <glyph glyph-name="exclam" unicode="!" horiz-adv-x="761" 
d="M303 0v164h164v-164h-164zM311 1366h148l-15 -1022h-118z" />
    <glyph glyph-name="quotedbl" unicode="&#x22;" horiz-adv-x="780" 
d="M166 1384h170l-35 -411h-98zM440 1384h170l-37 -411h-98z" />
    <glyph glyph-name="numbersign" unicode="#" horiz-adv-x="1210" 
d="M145 258v123h189l55 326h-186v122h209l41 242h125l-41 -242h270l43 242h125l-43 -242h147v-122h-168l-57 -326h166v-123h-186l-37 -219h-125l37 219h-271l-39 -219h-125l39 219h-168zM459 381h270l57 326h-272z" />
    <glyph glyph-name="dollar" unicode="$" horiz-adv-x="1181" 
d="M154 1004c0 95.333 31.6631 178.501 94.9961 249.501s161.333 113.167 294 126.5v209h110v-205c110.667 -5.33301 215.334 -32.333 314.001 -81v-152c-100 56 -204.667 84.667 -314 86v-469c58.667 -19.333 107.834 -37.833 147.501 -55.5s81 -42.167 124 -73.5
s75.5 -71.333 97.5 -120s33 -105.667 33 -171c0 -104 -35.167 -187.333 -105.5 -250s-169.166 -99.334 -296.499 -110.001v-209h-110v205c-138 4 -263.667 36 -377 96v160c105.333 -69.333 231 -105.666 377 -108.999v520c-50.667 15.333 -89.667 27.666 -117 36.999
s-61.166 24 -101.499 44s-71 41.167 -92 63.5s-39.333 51.333 -55 87s-23.5 76.167 -23.5 121.5zM300.996 1004c0 -52 20.5 -92.3311 61.5 -120.998s101.167 -55.334 180.5 -80.001v428c-161.333 -22.667 -242 -98.334 -242 -227.001zM652.996 135.003
c169.333 22 254 92.998 254 212.998c0 70.667 -21.833 125.834 -65.5 165.501s-106.5 73.834 -188.5 102.501v-481z" />
    <glyph glyph-name="percent" unicode="%" horiz-adv-x="1777" 
d="M145 983c0 74 9 137.168 27 189.501s42.333 91.166 73 116.499s61.667 43.5 93 54.5s66 16.5 104 16.5c82 0 151.667 -27.667 209 -83s86 -153.333 86 -294c0 -75.333 -8.83301 -138.833 -26.5 -190.5s-41.5 -90.5 -71.5 -116.5s-61 -44.5 -93 -55.5
s-66.667 -16.5 -104 -16.5c-38 0 -72.667 5.5 -104 16.5s-62.333 29.5 -93 55.5s-55 64.833 -73 116.5s-27 115.167 -27 190.5zM258 983.001c0 -108 16.667 -180.333 50 -217s78 -55 134 -55s100.5 18.333 133.5 55s49.5 109 49.5 217s-16.5 180 -49.5 216
s-77.5 54 -133.5 54c-57.333 0 -102.333 -18 -135 -54s-49 -108 -49 -216zM395 0.000976562l858 1366h131l-858 -1366h-131zM1042 385.001c0 75.333 9 138.833 27 190.5s42.333 90.5 73 116.5s61.667 44.5 93 55.5s66 16.5 104 16.5c36.667 0 71.167 -5.5 103.5 -16.5
s63.5 -29.5 93.5 -55.5s53.833 -64.833 71.5 -116.5s26.5 -115.167 26.5 -190.5s-8.83301 -138.833 -26.5 -190.5s-41.5 -90.5 -71.5 -116.5s-61.167 -44.5 -93.5 -55.5s-66.833 -16.5 -103.5 -16.5c-38 0 -72.667 5.5 -104 16.5s-62.333 29.5 -93 55.5
s-55 64.833 -73 116.5s-27 115.167 -27 190.5zM1155 385.001c0 -108 16.667 -180.333 50 -217s78 -55 134 -55s100.5 18.333 133.5 55s49.5 109 49.5 217s-16.5 180.333 -49.5 217s-77.5 55 -133.5 55s-100.667 -18.333 -134 -55s-50 -109 -50 -217z" />
    <glyph glyph-name="ampersand" unicode="&#x26;" horiz-adv-x="1310" 
d="M111 377c0 79.333 18.666 152.666 55.999 219.999s110.666 131 219.999 191c-90 112 -135 206.333 -135 283c0 84.667 30.333 157.334 91 218.001s133.334 91 218.001 91c87.333 0 161 -29 221 -87s90 -129.333 90 -214c0 -72.667 -19.667 -133.834 -59 -183.501
s-103.333 -100.5 -192 -152.5l297 -354c38 66.667 65.667 135 83 205h134c-22 -118 -62.333 -225.333 -121 -322l227 -272h-192l-125 152c-108 -112 -236.333 -168 -385 -168c-74 0 -140 12.833 -198 38.5s-102.667 59.334 -134 101.001s-55.166 84 -71.499 127
s-24.5 85.167 -24.5 126.5zM255.999 381c0 -22 4.16602 -45.6689 12.499 -71.002s22.333 -52.666 42 -81.999s49.667 -53.5 90 -72.5s88.5 -28.5 144.5 -28.5c114.667 0 211.667 43 291 129l-357 428c-52 -27.333 -94.667 -55.666 -128 -84.999s-56.166 -58.333 -68.499 -87
s-19.833 -51.167 -22.5 -67.5s-4 -37.5 -4 -63.5zM394.998 1069c0 -48 43 -119 129 -213c87.333 46.667 144.333 85.334 171 116.001s40 65.667 40 105c0 45.333 -16.333 82.666 -49 111.999s-73 44 -121 44c-46.667 0 -86.667 -16 -120 -48s-50 -70.667 -50 -116z" />
    <glyph glyph-name="quotesingle" unicode="'" horiz-adv-x="509" 
d="M166 1384h170l-35 -411h-98z" />
    <glyph glyph-name="parenleft" unicode="(" horiz-adv-x="706" 
d="M190 625c0.666992 300 76.667 586.003 228 858.003h155c-19.333 -31.333 -39.166 -68.833 -59.499 -112.5s-45.166 -103.834 -74.499 -180.501s-53.5 -164.834 -72.5 -264.501s-28.5 -199.834 -28.5 -300.501c0 -100 9.5 -200.167 28.5 -300.5s43.167 -188.333 72.5 -264
s54.666 -135.667 75.999 -180s40.666 -81.5 57.999 -111.5h-155c-151.333 272 -227.333 557.333 -228 856z" />
    <glyph glyph-name="parenright" unicode=")" horiz-adv-x="706" 
d="M133 -231c19.333 31.333 39.167 68.502 59.5 111.502s45.5 103 75.5 180s54.667 165.333 74 265s29 200.167 29 301.5c0 130 -17.833 262.167 -53.5 396.5s-68.5 233.166 -98.5 296.499s-58.667 117.666 -86 162.999h158c151.333 -272 227 -557.333 227 -856
c0 -300.667 -75.667 -586.667 -227 -858h-158z" />
    <glyph glyph-name="asterisk" unicode="*" horiz-adv-x="841" 
d="M172 1112l178 78l-178 80l55 94l156 -111l-21 187h111l-16 -187l153 111l56 -94l-177 -80l177 -78l-56 -98l-153 112l16 -184h-111l21 184l-156 -112z" />
    <glyph glyph-name="plus" unicode="+" horiz-adv-x="1128" 
d="M199 551v123h303v303h123v-303h301v-123h-301v-301h-123v301h-303z" />
    <glyph glyph-name="comma" unicode="," horiz-adv-x="641" 
d="M152 -229l151 401h168l-172 -401h-147z" />
    <glyph glyph-name="hyphen" unicode="-" horiz-adv-x="950" 
d="M162 539v143h624v-143h-624z" />
    <glyph glyph-name="period" unicode="." horiz-adv-x="671" 
d="M260 0v164h164v-164h-164z" />
    <glyph glyph-name="slash" unicode="/" horiz-adv-x="827" 
d="M-29 -201l752 1749h135l-754 -1749h-133z" />
    <glyph glyph-name="zero" unicode="0" horiz-adv-x="1345" 
d="M133 677.5c0 467 179.5 700.5 538.5 700.5s538.5 -233.5 538.5 -700.5s-179.5 -700.5 -538.5 -700.5s-538.5 233.5 -538.5 700.5zM281 678c0 -96.667 7.83105 -180.167 23.498 -250.5s35.667 -125.333 60 -165s55 -71.167 92 -94.5s71.833 -38.333 104.5 -45
s69.5 -10 110.5 -10s77.833 3.33301 110.5 10s67.5 21.667 104.5 45s67.833 54.833 92.5 94.5s44.834 94.5 60.501 164.5s23.5 153.667 23.5 251c0 118.667 -11.333 218 -34 298s-54.5 138 -95.5 174s-81.5 60.5 -121.5 73.5s-86.667 19.5 -140 19.5
s-100.166 -6.5 -140.499 -19.5s-81 -37.5 -122 -73.5s-72.667 -94 -95 -174s-33.5 -179.333 -33.5 -298z" />
    <glyph glyph-name="one" unicode="1" horiz-adv-x="923" 
d="M211 1032v174l252 160h168v-1366h-148v1212z" />
    <glyph glyph-name="two" unicode="2" horiz-adv-x="1189" 
d="M158 0v129c68 50.667 137.5 107 208.5 169s145.5 133.667 223.5 215s141.167 165.333 189.5 252s72.5 164.667 72.5 234c0 158.667 -107.333 238 -322 238c-126.667 0 -246 -39.667 -358 -119v162c114.667 69.333 238.334 104 371.001 104
c155.333 0 270.166 -37.5 344.499 -112.5s111.5 -165.833 111.5 -272.5c0 -74 -18.667 -151.5 -56 -232.5s-87.833 -159.667 -151.5 -236s-127 -145 -190 -206s-129.833 -120.167 -200.5 -177.5h619v-147h-862z" />
    <glyph glyph-name="three" unicode="3" horiz-adv-x="1193" 
d="M166 70l-0.00195312 151.002c106.667 -60 222 -90 346 -90c121.333 0 214.166 22.5 278.499 67.5s96.5 109.833 96.5 194.5s-32.833 149.5 -98.5 194.5s-160.5 67.5 -284.5 67.5h-150v142h156c100 0 176.167 18.667 228.5 56s78.5 91.5 78.5 162.5
s-27.667 125.667 -83 164s-135.333 57.5 -240 57.5c-101.333 0 -199.666 -24 -294.999 -72v150c96.667 46 198.667 69 306 69h5c155.333 0 270 -36.167 344 -108.5s111 -158.833 111 -259.5c0 -114.667 -49.333 -201.334 -148 -260.001l-29 -17
c6.66699 -2.66699 15.5 -6.66699 26.5 -12s30.5 -18.333 58.5 -39s53 -43.167 75 -67.5s41.833 -57.333 59.5 -99s26.5 -85.834 26.5 -132.501c0 -52 -9.16699 -101.167 -27.5 -147.5s-46.333 -89.333 -84 -129s-90.167 -71 -157.5 -94s-145.666 -34.5 -234.999 -34.5
c-131.333 0 -252.666 28.667 -363.999 86z" />
    <glyph glyph-name="four" unicode="4" horiz-adv-x="1210" 
d="M78 410v157l645 799h166v-819h194v-137h-194v-410h-148v410h-663zM242 547h499v608z" />
    <glyph glyph-name="five" unicode="5" horiz-adv-x="1202" 
d="M178 735l69.9961 631.001h702v-145h-575l-39 -406c80.667 24.667 169.334 37 266.001 37c56 0 107.167 -6.16699 153.5 -18.5s91.666 -33.5 135.999 -63.5s79.5 -75 105.5 -135s39 -132.333 39 -217s-13 -157 -39 -217s-61.167 -105.167 -105.5 -135.5
s-89.666 -51.5 -135.999 -63.5s-97.5 -18 -153.5 -18c-157.333 0 -287.666 28 -390.999 84v153c100 -62.667 227 -94 381 -94c53.333 0 99.333 6.5 138 19.5s68.334 28.333 89.001 46s36.5 40.834 47.5 69.501s17.833 54.334 20.5 77.001s4 49 4 79
c0 61.333 -8.16699 112.166 -24.5 152.499s-40.166 69.666 -71.499 87.999s-62.5 30.666 -93.5 36.999s-67.5 9.5 -109.5 9.5c-64 0 -123 -5.5 -177 -16.5s-91.333 -22.167 -112 -33.5l-33 -14z" />
    <glyph glyph-name="six" unicode="6" horiz-adv-x="1193" 
d="M133 625c0 94 8.49902 179.833 25.499 257.5s38.833 142.167 65.5 193.5s58.834 96.5 96.501 135.5s74.834 69 111.501 90s76.167 38 118.5 51s79.333 21.5 111 25.5s63.167 6 94.5 6c72.667 0 138.667 -8.66699 198 -26v-137c-65.333 16 -124 24 -176 24h-6
c-31.333 0 -62 -2 -92 -6s-67.833 -14.833 -113.5 -32.5s-86.334 -42 -122.001 -73s-68.167 -76.5 -97.5 -136.5s-48.666 -131 -57.999 -213c88.667 60 191.667 90 309 90c143.333 0 256.666 -38.5 339.999 -115.5s125 -181.833 125 -314.5
c0 -56 -8.5 -110.167 -25.5 -162.5s-43 -101.333 -78 -147s-83.5 -82.167 -145.5 -109.5s-134 -41 -216 -41c-310 0 -465 213.667 -465 641zM280.999 621c1.33301 -94 10.501 -174.501 27.501 -241.501s36 -116.667 57 -149s48.667 -57.333 83 -75
s60.666 -27.5 78.999 -29.5s41.833 -3 70.5 -3c68 0 125.333 12.667 172 38s79.5 58 98.5 98s31.5 74.5 37.5 103.5s9 56.833 9 83.5c0 92.667 -27.167 164.334 -81.5 215.001s-132.833 76 -235.5 76c-134 0 -239.667 -38.667 -317 -116z" />
    <glyph glyph-name="seven" unicode="7" horiz-adv-x="1175" 
d="M143 1219v147h932v-137l-592 -1229h-164l596 1219h-772z" />
    <glyph glyph-name="eight" unicode="8" horiz-adv-x="1191" 
d="M125 406c0 135.333 61.332 237.666 183.999 306.999c34 16.667 51 24.667 51 24l-20 11c-8 4 -22.667 14.167 -44 30.5s-40.166 34.666 -56.499 54.999s-31 48.333 -44 84s-19.5 73.167 -19.5 112.5c0 96.667 34.5 179.834 103.5 249.501s175.167 104.5 318.5 104.5
s249.5 -34.333 318.5 -103s103.5 -152.334 103.5 -251.001c0 -122.667 -49.333 -214 -148 -274l-30 -17c6.66699 -2.66699 15.167 -6.33398 25.5 -11.001s28.5 -16.167 54.5 -34.5s49.167 -39.166 69.5 -62.499s38.666 -55.166 54.999 -95.499s24.5 -83.5 24.5 -129.5
c0 -52 -8.5 -101.667 -25.5 -149s-43.333 -92.166 -79 -134.499s-85.167 -76 -148.5 -101s-136.666 -37.5 -219.999 -37.5c-160 0 -278.833 42.333 -356.5 127s-116.5 183 -116.5 295zM271.999 406c0 -18 1.50195 -36.5 4.50195 -55.5s10.833 -42.833 23.5 -71.5
s30 -54 52 -76s54.167 -40.833 96.5 -56.5s92.166 -23.5 149.499 -23.5s107.166 7.83301 149.499 23.5s74.5 34.5 96.5 56.5s39.333 47.333 52 76s20.5 52.5 23.5 71.5s4.5 37.5 4.5 55.5c0 82 -28 144.667 -84 188s-136.667 65 -242 65s-186 -21.833 -242 -65.5
s-84 -106.167 -84 -187.5zM324.001 1030c0 -74 24.167 -131.667 72.5 -173s115.5 -62 201.5 -62s153.167 20.833 201.5 62.5s72.5 99.167 72.5 172.5c0 139.333 -91.333 209 -274 209s-274 -69.667 -274 -209z" />
    <glyph glyph-name="nine" unicode="9" horiz-adv-x="1202" 
d="M119 924c0 56 8.49707 110.167 25.4971 162.5s42.833 101.5 77.5 147.5s83.167 82.5 145.5 109.5s134.5 40.5 216.5 40.5c310 0 465 -214.333 465 -643c0 -130 -16.167 -243.333 -48.5 -340s-71 -171 -116 -223s-98.5 -93.333 -160.5 -124s-115.5 -50 -160.5 -58
s-90.833 -12 -137.5 -12c-69.333 0 -135.666 8 -198.999 24v139c54 -16 112.333 -24 175 -24h8c31.333 0 62 2 92 6s67.833 14.833 113.5 32.5s85.834 42 120.501 73s67.167 76.5 97.5 136.5s49.5 131 57.5 213c-80.667 -60 -183 -90 -307 -90
c-143.333 0 -256.666 38.5 -339.999 115.5s-125 181.833 -125 314.5zM265.997 922c0 -92.667 27.332 -164.333 81.999 -215s133.334 -76 236.001 -76c138 0 243.667 39 317 117c-1.33301 94 -10.5 174.5 -27.5 241.5s-36.167 116.5 -57.5 148.5s-49 56.833 -83 74.5
s-60.167 27.5 -78.5 29.5s-41.833 3 -70.5 3c-68 0 -125.333 -12.667 -172 -38s-79.5 -58 -98.5 -98s-31.667 -74.333 -38 -103s-9.5 -56.667 -9.5 -84z" />
    <glyph glyph-name="colon" unicode=":" horiz-adv-x="800" 
d="M324 98v164h163v-164h-163zM324 754v164h163v-164h-163z" />
    <glyph glyph-name="semicolon" unicode=";" horiz-adv-x="854" 
d="M199 -229l151 401h168l-172 -401h-147zM352 754v164h164v-164h-164z" />
    <glyph glyph-name="less" unicode="&#x3c;" horiz-adv-x="1351" 
d="M246 481v140l844 383v-164l-672 -289l672 -291v-162z" />
    <glyph glyph-name="equal" unicode="=" horiz-adv-x="1306" 
d="M260 381v143h789v-143h-789zM260 698v142h789v-142h-789z" />
    <glyph glyph-name="greater" unicode="&#x3e;" horiz-adv-x="1329" 
d="M270 98v162l670 291l-670 289v164l842 -383v-140z" />
    <glyph glyph-name="question" unicode="?" horiz-adv-x="993" 
d="M164 1145l-0.000976562 160c75.333 51.333 170.333 77 285 77c40.667 0 80.834 -4.66699 120.501 -14s82.667 -26 129 -50s83.833 -63 112.5 -117s43 -119.667 43 -197c0 -54.667 -10.5 -102.167 -31.5 -142.5s-46.5 -73.166 -76.5 -98.499l-91 -76
c-30 -25.333 -55.5 -59.166 -76.5 -101.499s-31.5 -92.833 -31.5 -151.5v-90h-148v100c0 69.333 10.667 129.666 32 180.999s47 91.333 77 120s60 54.667 90 78s55.667 49.666 77 78.999s32 63.333 32 102c0 154 -89.667 231 -269 231c-104 0 -195.333 -30 -274 -90z
M390.999 0v164h164v-164h-164z" />
    <glyph glyph-name="at" unicode="@" horiz-adv-x="1869" 
d="M170 371c0 162.667 44.332 311.167 132.999 445.5s200 237.333 334 309s270.667 107.5 410 107.5c54.667 0 111.667 -7.16699 171 -21.5s119.333 -38.666 180 -72.999s114.834 -76.333 162.501 -126s86.5 -112.667 116.5 -189s45 -161.166 45 -254.499
c0 -147.333 -30.333 -268 -91 -362s-141.334 -141 -242.001 -141c-91.333 0 -155 33.333 -191 100c-64 -66.667 -162.333 -100 -295 -100c-95.333 0 -170.333 20.667 -225 62s-82 98.333 -82 171c0 32.667 5.5 64 16.5 94s30.833 61.5 59.5 94.5s74.667 59.333 138 79
s140 29.5 230 29.5c49.333 0 100 -3.33301 152 -10c1.33301 9.33301 2 23.666 2 42.999c0 23.333 -2 43.166 -6 59.499s-11.833 33 -23.5 50s-31.834 30 -60.501 39s-65 13.5 -109 13.5c-95.333 0 -180.666 -14.333 -255.999 -43l17 118c82 27.333 161.667 41 239 41
c104 0 183 -23.5 237 -70.5s81 -116.167 81 -207.5c0 -39.333 -3.83301 -86.833 -11.5 -142.5s-13.5 -101.5 -17.5 -137.5c-2.66699 -26.667 -4 -53.667 -4 -81v-26c1.33301 -36 11.5 -62.5 30.5 -79.5s47.833 -25.5 86.5 -25.5c60 0 116.333 38 169 114s79 180 79 312
c0 96.667 -18.5 184 -55.5 262s-85.167 140.167 -144.5 186.5s-123.166 81.833 -191.499 106.5s-137.166 37 -206.499 37c-207.333 0 -392 -76.833 -554 -230.5s-243 -338.167 -243 -553.5c0 -102.667 17 -192.834 51 -270.501s75 -136.667 123 -177
s102.333 -73.166 163 -98.499s111.834 -41 153.501 -47s79.5 -9 113.5 -9c169.333 0 312.666 33.333 429.999 100l-18 -92c-114.667 -54.667 -257.334 -82 -428.001 -82c-57.333 0 -115.5 7.5 -174.5 22.5s-118.5 39.833 -178.5 74.5s-112.833 77 -158.5 127
s-83.167 114.167 -112.5 192.5s-44 164.833 -44 259.5zM902.999 184c32.667 0 62 2.83105 88 8.49805s47.833 11.5 65.5 17.5s33.334 16.5 47.001 31.5s24 27.333 31 37s13.167 25 18.5 46s9 36.333 11 46s4.16699 26.834 6.5 51.501s4.16602 40.334 5.49902 47.001
c-36.667 5.33301 -82 8 -136 8c-216.667 0 -325 -59 -325 -177c0 -77.333 62.667 -116 188 -116z" />
    <glyph glyph-name="A" unicode="A" horiz-adv-x="1325" 
d="M43 0l545 1366h147l543 -1366h-158l-164 426h-589l-164 -426h-160zM422 567h479l-239 625z" />
    <glyph glyph-name="B" unicode="B" horiz-adv-x="1271" 
d="M178 0l-0.00292969 1366h453c302.667 0 454 -121.667 454 -365c0 -38 -5 -73.333 -15 -106s-22.167 -58.667 -36.5 -78s-28.333 -36.166 -42 -50.499s-26.167 -24.166 -37.5 -29.499l-14 -10c6.66699 -1.33301 14.834 -4 24.501 -8s27.834 -15 54.501 -33
s49.834 -38.5 69.501 -61.5s37.667 -55.667 54 -98s24.5 -88.833 24.5 -139.5c0 -258 -165 -387 -495 -387h-494zM325.997 136.998l358.001 0.000976562c104 0 186 18.167 246 54.5s90 104.166 90 203.499c0 42 -7.16699 78.167 -21.5 108.5s-31.833 54 -52.5 71
s-47.334 30 -80.001 39s-63 14.833 -91 17.5s-60.333 4 -97 4h-352v-498zM325.998 773.999h338c83.333 0 149.833 14.333 199.5 43s74.5 86 74.5 172c0 88.667 -24.167 150.167 -72.5 184.5s-121.833 51.5 -220.5 51.5h-319v-451z" />
    <glyph glyph-name="C" unicode="C" horiz-adv-x="1286" 
d="M125 684c0 466.667 211.001 700 633.001 700c146 0 284.667 -26.333 416 -79v-142c-130 54.667 -263.333 82 -400 82c-173.333 0 -300.333 -45 -381 -135s-121 -232 -121 -426s40.333 -336 121 -426s207.667 -135 381 -135c139.333 0 272.666 26.667 399.999 80v-142
c-130.667 -51.333 -267.667 -77 -411 -77h-5c-422 0 -633 233.333 -633 700z" />
    <glyph glyph-name="D" unicode="D" horiz-adv-x="1372" 
d="M178 0v1366h428c427.333 0 641 -227.333 641 -682c0 -456 -213.667 -684 -641 -684h-428zM326 139h270c174.667 0 302.334 43.667 383.001 131s121 225.333 121 414s-40.333 326.667 -121 414s-208.334 131 -383.001 131h-270v-1090z" />
    <glyph glyph-name="E" unicode="E" horiz-adv-x="1159" 
d="M178 0v1366h862v-139h-714v-471h628v-144h-628v-473h714v-139h-862z" />
    <glyph glyph-name="F" unicode="F" horiz-adv-x="1097" 
d="M178 0v1366h838v-139h-690v-471h606v-144h-606v-612h-148z" />
    <glyph glyph-name="G" unicode="G" horiz-adv-x="1386" 
d="M125 684c0 466.667 211.002 700 633.002 700c151.333 0 294.666 -28.667 429.999 -86v-143c-132.667 58.667 -270.667 88 -414 88c-173.333 0 -300.333 -45 -381 -135s-121 -231.333 -121 -424c0 -194 40.333 -335.667 121 -425s207.667 -134 381 -134
c109.333 0 213.666 16.333 312.999 49v426h-329v143h477v-653c-147.333 -70.667 -306.333 -106 -477 -106c-422 0 -633 233.333 -633 700z" />
    <glyph glyph-name="H" unicode="H" horiz-adv-x="1380" 
d="M178 0v1366h148v-612h727v612h147v-1366h-147v612h-727v-612h-148z" />
    <glyph glyph-name="I" unicode="I" horiz-adv-x="501" 
d="M178 0v1366h148v-1366h-148z" />
    <glyph glyph-name="J" unicode="J" horiz-adv-x="915" 
d="M59 55l-0.00195312 154c78 -54.667 162 -82 252 -82c92.667 0 159.5 22.833 200.5 68.5s61.5 120.5 61.5 224.5v946h148v-958c0 -83.333 -11.667 -154.5 -35 -213.5s-55.166 -102.833 -95.499 -131.5s-81.666 -49 -123.999 -61s-87.833 -18 -136.5 -18
c-98 0 -188.333 23.667 -271 71z" />
    <glyph glyph-name="K" unicode="K" horiz-adv-x="1294" 
d="M178 0v1366h148v-704l632 704h199l-586 -639l633 -727h-194l-535 623l-149 -164v-459h-148z" />
    <glyph glyph-name="L" unicode="L" horiz-adv-x="1067" 
d="M178 0v1366h148v-1223h698v-143h-846z" />
    <glyph glyph-name="M" unicode="M" horiz-adv-x="1619" 
d="M178 0v1366h160l469 -694l471 694h160v-1366h-148v1124l-483 -696l-481 696v-1124h-148z" />
    <glyph glyph-name="N" unicode="N" horiz-adv-x="1490" 
d="M178 0v1366h168l815 -1151v1151h148v-1366h-166l-817 1151v-1151h-148z" />
    <glyph glyph-name="O" unicode="O" 
d="M125 684c0 466.667 211 700 633 700c423.333 0 635 -233.333 635 -700s-211.667 -700 -635 -700c-422 0 -633 233.333 -633 700zM272 684c0 -194 39 -336 117 -426s201 -135 369 -135c169.333 0 292.833 45 370.5 135s116.5 232 116.5 426s-38.833 336 -116.5 426
s-201.167 135 -370.5 135c-168 0 -291 -45 -369 -135s-117 -232 -117 -426z" />
    <glyph glyph-name="P" unicode="P" horiz-adv-x="1220" 
d="M176 0v1366h486c152.667 0 269.667 -36.167 351 -108.5s122 -176.833 122 -313.5s-40.667 -241.167 -122 -313.5s-198.333 -108.5 -351 -108.5h-338v-522h-148zM324 664h319c72.667 0 133.167 7.83301 181.5 23.5s83.5 38.5 105.5 68.5s37 59.333 45 88s12 62 12 100
s-4 71.333 -12 100s-23 58.167 -45 88.5s-57.167 53.333 -105.5 69s-108.833 23.5 -181.5 23.5h-319v-561z" />
    <glyph glyph-name="Q" unicode="Q" 
d="M125 684c0 466.667 210.997 699.999 632.997 699.999c423.333 0 635 -233.333 635 -700c0 -434 -184.333 -666.667 -553 -698c27.333 -113.333 116.666 -172 267.999 -176v-134c-75.333 0 -140.666 10 -195.999 30s-97.666 47 -126.999 81s-51.166 66.667 -65.499 98
s-24.166 65 -29.499 101c-376.667 24.667 -565 257.334 -565 698.001zM271.997 683.999c0 -194 39 -336 117 -426s201 -135 369 -135c169.333 0 292.833 45 370.5 135s116.5 232 116.5 426s-38.833 336 -116.5 426s-201.167 135 -370.5 135c-168 0 -291 -45 -369 -135
s-117 -232 -117 -426z" />
    <glyph glyph-name="R" unicode="R" horiz-adv-x="1271" 
d="M178 0l0.00292969 1366h502c148.667 0 263 -33.833 343 -101.5s120 -166.167 120 -295.5c0 -58.667 -9.33301 -112 -28 -160s-39.834 -85.333 -63.501 -112s-51.834 -49.834 -84.501 -69.501s-59.334 -32.667 -80.001 -39s-40 -11.5 -58 -15.5l375 -573h-174l-356 551
h-348v-551h-148zM326.003 690.001h346c68 0 124.833 7.83301 170.5 23.5s78.834 37.5 99.501 65.5s34.667 55.667 42 83s11 59.5 11 96.5s-3.66699 69.167 -11 96.5s-21.333 55 -42 83s-53.834 49.833 -99.501 65.5s-102.5 23.5 -170.5 23.5h-346v-537z" />
    <glyph glyph-name="S" unicode="S" horiz-adv-x="1150" 
d="M125 1004c0 105.333 38.167 194.999 114.5 268.999s195.166 111 356.499 111c116 0 230 -27 342 -81v-152c-101.333 57.333 -210.666 86 -327.999 86c-109.333 0 -193 -20 -251 -60s-87 -97.667 -87 -173c0 -46.667 18.833 -85.667 56.5 -117s84.167 -54.5 139.5 -69.5
s115.833 -34.167 181.5 -57.5s126 -48.666 181 -75.999s101.333 -69.666 139 -126.999s56.5 -127 56.5 -209c0 -113.333 -42.667 -202.333 -128 -267s-204.333 -97 -357 -97c-148.667 0 -283.334 32 -404.001 96v160c108 -72.667 239 -109 393 -109
c232 0 348.333 72.333 349 217c0 61.333 -18.833 112.833 -56.5 154.5s-84.167 72.167 -139.5 91.5l-181 60c-65.333 21.333 -125.666 43 -180.999 65s-101.833 57.167 -139.5 105.5s-56.5 108.166 -56.5 179.499z" />
    <glyph glyph-name="T" unicode="T" horiz-adv-x="1163" 
d="M25 1223v143h1112v-143h-482v-1223h-147v1223h-483z" />
    <glyph glyph-name="U" unicode="U" horiz-adv-x="1476" 
d="M178 561l0.00195312 805h148v-813c0 -289.333 135.833 -434 407.5 -434s407.5 144.667 407.5 434v813h147v-805c0 -187.333 -47.833 -330.333 -143.5 -429s-232.834 -148 -411.501 -148s-315.834 49.5 -411.501 148.5s-143.5 241.833 -143.5 428.5z" />
    <glyph glyph-name="V" unicode="V" horiz-adv-x="1251" 
d="M25 1366h157l441 -1155l438 1155h158l-525 -1366h-145z" />
    <glyph glyph-name="W" unicode="W" horiz-adv-x="1947" 
d="M25 1366h155l359 -1143l360 1143h148l358 -1143l360 1143h156l-440 -1366h-150l-358 1114l-359 -1114h-151z" />
    <glyph glyph-name="X" unicode="X" horiz-adv-x="1206" 
d="M25 0l485 692l-473 674h176l387 -549l385 549h180l-475 -676l484 -690h-177l-397 563l-395 -563h-180z" />
    <glyph glyph-name="Y" unicode="Y" horiz-adv-x="1224" 
d="M25 1366h178l405 -596l404 596h178l-508 -739v-627h-147v627z" />
    <glyph glyph-name="Z" unicode="Z" horiz-adv-x="1247" 
d="M131 0v129l780 1090h-759v147h952v-125l-785 -1094h785v-147h-973z" />
    <glyph glyph-name="bracketleft" unicode="[" horiz-adv-x="784" 
d="M244 -238v1663h370v-139h-223v-1384h223v-140h-370z" />
    <glyph glyph-name="backslash" unicode="\" horiz-adv-x="753" 
d="M-76 1548h135l752 -1749h-133z" />
    <glyph glyph-name="bracketright" unicode="]" horiz-adv-x="780" 
d="M172 -98h221v1384h-221v139h369v-1663h-369v140z" />
    <glyph glyph-name="asciicircum" unicode="^" horiz-adv-x="1146" 
d="M274 969l213 444h113l213 -444h-123l-145 325l-148 -325h-123z" />
    <glyph glyph-name="underscore" unicode="_" horiz-adv-x="1118" 
d="M0 -49h1118v-90h-1118v90z" />
    <glyph glyph-name="grave" unicode="`" horiz-adv-x="448" 
d="M94 1391h150l116 -236h-96z" />
    <glyph glyph-name="a" unicode="a" horiz-adv-x="1093" 
d="M115 313c0 46.667 8.50684 88.498 25.5068 125.498s37.833 67 62.5 90s56 42.667 94 59s71.667 28.333 101 36s64.166 13.5 104.499 17.5s69 6.33301 86 7s37.167 1 60.5 1l164 -10c0 91.333 -25.167 156.5 -75.5 195.5s-124.833 58.5 -223.5 58.5
c-110.667 0 -210.334 -16.333 -299.001 -49v143c100.667 35.333 203 53 307 53c143.333 0 252.666 -36.167 327.999 -108.5s113 -178.166 113 -317.499v-307c0 -65.333 -15.167 -121.166 -45.5 -167.499s-69.333 -79.833 -117 -100.5s-92.334 -35 -134.001 -43
s-82.834 -12 -123.501 -12c-31.333 0 -63.5 2 -96.5 6s-70.333 13.167 -112 27.5s-77.834 32.666 -108.501 54.999s-56.834 54.333 -78.501 96s-32.5 89.834 -32.5 144.501zM262.007 312.998c0 -128 92.667 -192 278 -192h3c181.333 0 272 62 272 186v197
c-45.333 8 -106 12 -182 12c-247.333 0 -371 -67.667 -371 -203z" />
    <glyph glyph-name="b" unicode="b" horiz-adv-x="1167" 
d="M170 307v1106h147v-414c82 27.333 166 41 252 41c46.667 0 90.5 -4 131.5 -12s82.667 -23.667 125 -47s78.833 -53.333 109.5 -90s55.5 -86.5 74.5 -149.5s28.5 -135.5 28.5 -217.5c0 -90 -10.5 -168.833 -31.5 -236.5s-46.833 -120.167 -77.5 -157.5
s-67.5 -67.666 -110.5 -90.999s-82.667 -38.333 -119 -45s-73.5 -10 -111.5 -10c-74 0 -138.333 9.16699 -193 27.5s-95.667 39.5 -123 63.5s-49.5 52.667 -66.5 86s-27.167 60.833 -30.5 82.5s-5 42.834 -5 63.501zM317 298.998c0.666992 -120 91 -180 271 -180
c38 0 72.333 4.33301 103 13s62.5 25.667 95.5 51s58.667 67 77 125s27.5 130 27.5 216c0 132.667 -25.333 229 -76 289s-132.667 90 -246 90c-84.667 0 -168.667 -17 -252 -51v-553z" />
    <glyph glyph-name="c" unicode="c" horiz-adv-x="966" 
d="M119 512c0 104 14.3369 192.5 43.0039 265.5s67.5 127.5 116.5 163.5s99.167 61.5 150.5 76.5s107.666 22.5 168.999 22.5c102.667 0 203.667 -19 303 -57v-141c-92.667 38 -188.334 57 -287.001 57c-121.333 0 -209.666 -30.667 -264.999 -92s-83 -159.666 -83 -294.999
c0 -136.667 27.667 -235.334 83 -296.001s143.666 -91 264.999 -91c102.667 0 198.334 19 287.001 57v-143c-95.333 -36.667 -196.333 -55 -303 -55c-48 0 -92.833 4 -134.5 12s-84.334 24 -128.001 48s-80.834 54.833 -111.501 92.5s-55.834 88.5 -75.501 152.5
s-29.5 138.333 -29.5 223z" />
    <glyph glyph-name="d" unicode="d" horiz-adv-x="1150" 
d="M129 524c0 101.333 13.666 187.503 40.999 258.503s65.166 124.167 113.499 159.5s97.5 60.166 147.5 74.499s105 21.5 165 21.5c90 0 174.667 -13 254 -39v412h147v-1106c0 -27.333 -4 -55.333 -12 -84s-24.667 -62.834 -50 -102.501s-68.666 -72 -129.999 -97
s-137 -37.5 -227 -37.5c-38 0 -75.167 3.33301 -111.5 10s-75.666 21.667 -117.999 45s-78.833 53.666 -109.5 90.999s-56.667 89.833 -78 157.5s-32 146.5 -32 236.5zM275.999 524.003c0 -86 9.33203 -158 27.999 -216s44.334 -99.667 77.001 -125s64 -42.333 94 -51
s64.333 -13 103 -13c181.333 0 272 60 272 180v553c-83.333 34 -168 51 -254 51c-112 0 -193.333 -30 -244 -90s-76 -156.333 -76 -289z" />
    <glyph glyph-name="e" unicode="e" horiz-adv-x="1136" 
d="M129 498v7.00195v8c0 351.333 149.667 527 449 527c62.667 0 119.5 -9.83301 170.5 -29.5s91.5 -42.834 121.5 -69.501s56.333 -61.5 79 -104.5s38.834 -79.5 48.501 -109.5s17.167 -66.333 22.5 -109c5.33301 -41.333 8 -67.333 8 -78v-44l-4 -72h-745
c9.33301 -102.667 40.666 -177.167 93.999 -223.5s132.333 -69.5 237 -69.5c148.667 0 265.667 25.333 351 76v-152c-98.667 -47.333 -218.334 -71 -359.001 -71h-6c-60 0 -115 7.16699 -165 21.5s-99.167 39.166 -147.5 74.499s-86.166 88.5 -113.499 159.5
s-41 157.167 -41 258.5zM279 555.002h598c0 23.333 -2.83301 49.333 -8.5 78s-17 65.5 -34 110.5s-47.667 82.5 -92 112.5s-99.166 45 -164.499 45c-101.333 0 -174.833 -26.333 -220.5 -79s-71.834 -141.667 -78.501 -267z" />
    <glyph glyph-name="f" unicode="f" horiz-adv-x="675" 
d="M82 887l0.000976562 135h176v55c0 70.667 9.16699 131.334 27.5 182.001s39.166 88 62.499 112s53.166 42.833 89.499 56.5s64 21.167 83 22.5s41.5 2 67.5 2c36.667 0 69.334 -4 98.001 -12v-131c-27.333 5.33301 -52 8 -74 8c-32.667 0 -57.5 -1.33301 -74.5 -4
s-37.5 -10.834 -61.5 -24.501s-41.667 -38 -53 -73s-17 -80.5 -17 -136.5v-57h280v-135h-280v-887h-148v887h-176z" />
    <glyph glyph-name="g" unicode="g" horiz-adv-x="1101" 
d="M123 516c0 106.667 14.333 197.163 43 271.496s67.167 128.5 115.5 162.5s94.333 57.5 138 70.5s89.5 19.5 137.5 19.5c87.333 0 160.666 -12.167 219.999 -36.5s101 -55.666 125 -93.999s40.167 -71.5 48.5 -99.5s12.5 -55.667 12.5 -83v-770
c0 -45.333 -6.5 -87 -19.5 -125s-34.5 -75.167 -64.5 -111.5s-75.833 -64.666 -137.5 -84.999s-136.167 -30.5 -223.5 -30.5c-95.333 0 -192.333 12.333 -291 37v139c87.333 -24.667 179 -37 275 -37c65.333 0 120.166 5.83301 164.499 17.5s76.5 28.334 96.5 50.001
s33.667 43.167 41 64.5s11 47 11 77v102c-76.667 -24.667 -156.667 -37 -240 -37c-45.333 0 -87.666 3.83301 -126.999 11.5s-79.5 22.834 -120.5 45.501s-76.167 52 -105.5 88s-53.166 84 -71.499 144s-27.5 129.667 -27.5 209zM270 515.996
c0 -76.667 8.16699 -139.832 24.5 -189.499s40.333 -86.5 72 -110.5s63.5 -40 95.5 -48s69.667 -12 113 -12c82 0 162 15.667 240 47v530c0 114.667 -86 172 -258 172c-36.667 0 -69.334 -4.33301 -98.001 -13s-58.667 -25.334 -90 -50.001s-55.666 -64.667 -72.999 -120
s-26 -124 -26 -206z" />
    <glyph glyph-name="h" unicode="h" horiz-adv-x="1181" 
d="M193 0l0.000976562 1411h147v-436c103.333 43.333 206.333 65 309 65c125.333 0 222.166 -37.833 290.499 -113.5s102.5 -182.5 102.5 -320.5v-606h-147v606c0 191.333 -87.333 287 -262 287c-95.333 0 -193 -20.667 -293 -62v-831h-147z" />
    <glyph glyph-name="i" unicode="i" horiz-adv-x="540" 
d="M193 1204v162h163v-162h-163zM201 0h147v1022h-147v-1022z" />
    <glyph glyph-name="j" unicode="j" horiz-adv-x="514" 
d="M6 -258c84.667 1.33301 140.667 18 168 50s41 84.333 41 157v1073h147v-1081c0 -224 -118.667 -336 -356 -336v137zM207 1204v162h164v-162h-164z" />
    <glyph glyph-name="k" unicode="k" horiz-adv-x="1124" 
d="M188 0v1411h148v-891l459 502h200l-436 -469l492 -553h-197l-391 449l-127 -138v-311h-148z" />
    <glyph glyph-name="l" unicode="l" horiz-adv-x="552" 
d="M207 0v1411h147v-1411h-147z" />
    <glyph glyph-name="m" unicode="m" horiz-adv-x="1824" 
d="M193 0l-0.00292969 942c131.333 65.333 267.666 98 408.999 98c112 0 202 -28 270 -84c131.333 56 257.666 84 378.999 84c124 0 220.167 -32.667 288.5 -98s102.5 -157.333 102.5 -276v-666h-147v666c0 28.667 -2.66699 54.167 -8 76.5s-16.166 46.166 -32.499 71.499
s-42.666 44.833 -78.999 58.5s-81.166 20.5 -134.499 20.5c-86 0 -180.333 -17 -283 -51c22 -49.333 33 -108 33 -176v-666h-147v666c0 30 -2.83301 56.167 -8.5 78.5s-16.667 45.833 -33 70.5s-43.166 43.834 -80.499 57.501s-83.333 20.5 -138 20.5
c-83.333 0 -164.666 -12.333 -243.999 -37v-856h-147z" />
    <glyph glyph-name="n" unicode="n" horiz-adv-x="1189" 
d="M168 0l0.000976562 940.001c134 66.667 278 100 432 100c128.667 0 228.5 -32.667 299.5 -98s106.5 -157.333 106.5 -276v-666h-148v666c0 28.667 -3 54.167 -9 76.5s-17.667 46.166 -35 71.499s-45.333 44.833 -84 58.5s-87.334 20.5 -146.001 20.5
c-86 0 -175.667 -13.667 -269 -41v-852h-147z" />
    <glyph glyph-name="o" unicode="o" horiz-adv-x="1155" 
d="M100 512c0 104 14.333 192.5 43 265.5s67.667 127.5 117 163.5s99.5 61.5 150.5 76.5s107.333 22.5 169 22.5s118.334 -7.5 170.001 -22.5s102.167 -40.5 151.5 -76.5s88.333 -90.5 117 -163.5s43 -161.5 43 -265.5s-14.333 -192.5 -43 -265.5
s-67.667 -127.5 -117 -163.5s-99.833 -61.5 -151.5 -76.5s-108.334 -22.5 -170.001 -22.5s-118 7.5 -169 22.5s-101.167 40.5 -150.5 76.5s-88.333 90.5 -117 163.5s-43 161.5 -43 265.5zM248 512c0 -136.667 26.333 -236.332 79 -298.999s137 -94 253 -94
s200.5 31 253.5 93s79.5 162 79.5 300s-26.5 238 -79.5 300s-137.5 93 -253.5 93s-200.333 -31.333 -253 -94s-79 -162.334 -79 -299.001z" />
    <glyph glyph-name="p" unicode="p" horiz-adv-x="1159" 
d="M168 -379v1096c0 27.333 4.16699 55.333 12.5 84s25 63.167 50 103.5s68.333 73 130 98s137.5 37.5 227.5 37.5c38 0 75.167 -3.33301 111.5 -10s75.666 -21.667 117.999 -45s78.833 -54 109.5 -92s56.5 -90.833 77.5 -158.5s31.5 -146.5 31.5 -236.5
c0 -101.333 -13.667 -187.5 -41 -258.5s-65.166 -124.167 -113.499 -159.5s-97.5 -60.166 -147.5 -74.499s-105 -21.5 -165 -21.5c-83.333 0 -168 13 -254 39v-402h-147zM315 171.999c78 -34 162.667 -51 254 -51c112 0 193.333 29.667 244 89s76 156 76 290
c0 86 -9.16699 157.667 -27.5 215s-44 99 -77 125s-64.5 43.333 -94.5 52s-64 13 -102 13c-181.333 0 -272.333 -60.667 -273 -182v-551z" />
    <glyph glyph-name="q" unicode="q" horiz-adv-x="1150" 
d="M115 498c0 90 10.5 168.835 31.5 236.502s46.833 120.5 77.5 158.5s67.167 68.667 109.5 92s81.666 38.333 117.999 45s73.5 10 111.5 10c74 0 138.333 -9.16699 193 -27.5s95.667 -39.5 123 -63.5s49.5 -52.667 66.5 -86s27.167 -60.833 30.5 -82.5s5 -42.834 5 -63.501
v-1096h-147v402c-78 -26 -162 -39 -252 -39c-60 0 -115 7.16699 -165 21.5s-99.167 39.166 -147.5 74.499s-86.166 88.5 -113.499 159.5s-41 157.167 -41 258.5zM262 500.002c0 -134 25.333 -230.667 76 -290s132 -89 244 -89c90 0 174 17 252 51v551
c0 121.333 -90.333 182 -271 182c-38 0 -72 -4.33301 -102 -13s-61.5 -26 -94.5 -52s-58.667 -67.667 -77 -125s-27.5 -129 -27.5 -215z" />
    <glyph glyph-name="r" unicode="r" horiz-adv-x="702" 
d="M166 0v940.001c154 65.333 319.333 98 496 98v-141c-112 -2.66699 -228.333 -20.334 -349 -53.001v-844h-147z" />
    <glyph glyph-name="s" unicode="s" horiz-adv-x="872" 
d="M100 743c0 82 29.832 152 89.499 210s150.834 87 273.501 87c87.333 0 174.666 -21 261.999 -63v-148c-78 46.667 -160 70 -246 70c-154 0 -231 -52 -231 -156c0 -35.333 18.667 -63.833 56 -85.5s83 -39.667 137 -54s108 -31.5 162 -51.5s99.833 -53.833 137.5 -101.5
s56.5 -108.5 56.5 -182.5c0 -88.667 -33.167 -158.167 -99.5 -208.5s-158.166 -75.5 -275.499 -75.5c-113.333 0 -216.333 25.667 -309 77v156c98 -60 199 -90 303 -90c155.333 0 233 47 233 141c0 50.667 -18.667 90.334 -56 119.001s-83 50.167 -137 64.5s-108 30 -162 47
s-99.833 45.667 -137.5 86s-56.5 93.166 -56.5 158.499z" />
    <glyph glyph-name="t" unicode="t" horiz-adv-x="706" 
d="M49 887l-0.00195312 134.999h178v289h148v-289h264v-135h-264v-623c0 -52 10.833 -88.5 32.5 -109.5s59.834 -31.5 114.501 -31.5c42 0 81 8 117 24v-139c-43.333 -16 -86.666 -24 -129.999 -24h-5c-27.333 0 -54 3 -80 9s-55.333 17.833 -88 35.5s-59 47.334 -79 89.001
s-30 93.167 -30 154.5v615h-178z" />
    <glyph glyph-name="u" unicode="u" horiz-adv-x="1202" 
d="M168 430v592h147v-600c0 -104 22.667 -180.167 68 -228.5s116.333 -72.5 213 -72.5c95.333 0 166 24.167 212 72.5s69 124.5 69 228.5v600h147v-592c0 -142 -37.167 -251.833 -111.5 -329.5s-179.833 -116.5 -316.5 -116.5s-242.167 38.833 -316.5 116.5
s-111.5 187.5 -111.5 329.5z" />
    <glyph glyph-name="v" unicode="v" horiz-adv-x="1062" 
d="M66 1022h157l309 -838l310 838h157l-393 -1022h-149z" />
    <glyph glyph-name="w" unicode="w" horiz-adv-x="1603" 
d="M78 1022h155l261 -791l235 791h141l238 -791l260 791h156l-340 -1022h-150l-233 764l-234 -764h-149z" />
    <glyph glyph-name="x" unicode="x" horiz-adv-x="1032" 
d="M57 0l365 518l-354 504h174l268 -379l268 379h180l-356 -504l-2 -4l363 -514h-177l-274 389l-274 -389h-181z" />
    <glyph glyph-name="y" unicode="y" horiz-adv-x="1028" 
d="M63 1022l158.002 0.000976562l291 -809l295 809h158l-418 -1122c-72.667 -196.667 -180 -295 -322 -295c-32.667 0 -64.667 6 -96 18v135c27.333 -12 56.666 -18 87.999 -18c26 0 51.667 9.5 77 28.5s46.166 41.833 62.499 68.5s31.333 53.667 45 81
s23.167 50.666 28.5 69.999l10 28z" />
    <glyph glyph-name="z" unicode="z" horiz-adv-x="950" 
d="M92 0v133l557 748h-543v141h734v-129l-561 -752h561v-141h-748z" />
    <glyph glyph-name="braceleft" unicode="{" horiz-adv-x="763" 
d="M186 551v100.002c86 22 129 71.333 129 148v319c0 100 26.333 176.5 79 229.5s129 79.5 229 79.5v-139c-54.667 -2.66699 -95 -14.834 -121 -36.501s-39 -62.834 -39 -123.501v-329c0 -79.333 -39.667 -145.666 -119 -198.999c79.333 -53.333 119 -119.666 119 -198.999
v-329c0 -58.667 13 -99.334 39 -122.001s66.333 -35.334 121 -38.001v-137c-100 0 -176.333 26.167 -229 78.5s-79 128.5 -79 228.5v319c0 74 -43 124 -129 150z" />
    <glyph glyph-name="bar" unicode="|" horiz-adv-x="907" 
d="M379 -203v1565h147v-1565h-147z" />
    <glyph glyph-name="braceright" unicode="}" horiz-adv-x="753" 
d="M156 -88c54.667 2.66699 94.833 15.332 120.5 37.999s38.5 63.334 38.5 122.001v329c0 78 40.333 144.333 121 199c-80.667 54.667 -121 121 -121 199v329c0 60 -12.5 101 -37.5 123s-65.5 34.333 -121.5 37v139c100 0 176.167 -26.5 228.5 -79.5
s78.5 -129.5 78.5 -229.5v-319c0 -76.667 43 -126 129 -148v-100c-86 -26 -129 -76 -129 -150v-319c0 -100 -26.333 -176.167 -79 -228.5s-128.667 -78.5 -228 -78.5v137z" />
    <glyph glyph-name="asciitilde" unicode="~" horiz-adv-x="1024" 
d="M201 473v125c38 48 79 74.333 123 79c7.33301 0.666992 14.666 1 21.999 1c36 0 70.667 -9 104 -27l124 -65c33.333 -18 67.666 -27 102.999 -27c8 0 15.667 0.333008 23 1c44 4.66699 85 31 123 79v-123c-38 -48 -79 -74.333 -123 -79
c-7.33301 -0.666992 -14.666 -1 -21.999 -1c-36 0 -70.667 9 -104 27l-124 65c-33.333 16.667 -67.666 25 -102.999 25c-8 0 -15.667 -0.333008 -23 -1c-44 -4.66699 -85 -31 -123 -79z" />
    <glyph glyph-name="exclamdown" unicode="&#xa1;" horiz-adv-x="741" 
d="M303 860v162h164v-162h-164zM311 -344l15 1022h118l15 -1022h-148z" />
    <glyph glyph-name="cent" unicode="&#xa2;" horiz-adv-x="976" 
d="M233.5 1072c77.667 80 175.833 125.332 294.5 135.999v158h103v-156c87.333 -1.33301 176 -19.666 266 -54.999v-141c-83.333 34 -172 52.333 -266 55v-772c95.333 2.66699 184 21.667 266 57v-143c-83.333 -32.667 -172 -51 -266 -55v-156h-103v158
c-274 27.333 -411 202 -411 524c0 180 38.833 310 116.5 390zM263.999 683.999c0 -118.667 21.167 -208.667 63.5 -270s109.166 -98.333 200.499 -111v762c-91.333 -13.333 -158.166 -50.5 -200.499 -111.5s-63.5 -150.833 -63.5 -269.5z" />
    <glyph glyph-name="sterling" unicode="&#xa3;" horiz-adv-x="1136" 
d="M104 -31v150c53.333 26 112.333 41 177 45v411h-177v136h177v293c0 105.333 35.167 195 105.5 269s179.833 111 328.5 111c108 0 211 -26.333 309 -79v-150c-92.667 58.667 -191.667 88 -297 88c-199.333 0 -299 -77.667 -299 -233v-299h412v-136h-412v-415
c34 -4 82.5 -12.5 145.5 -25.5s114.5 -23.167 154.5 -30.5c31.333 -5.33301 67 -8 107 -8c12 0 24 0.333008 36 1c55.333 2 106.333 12 153 30v-150c-53.333 -20.667 -113.333 -31 -180 -31c-16 0 -32.333 0.666992 -49 2c-86 6 -162.833 18.5 -230.5 37.5
s-144.167 29.5 -229.5 31.5h-14c-80 0 -152.333 -16 -217 -48z" />
    <glyph glyph-name="yen" unicode="&#xa5;" horiz-adv-x="1232" 
d="M37 1366h180l404 -588l403 588h180l-444 -645h256v-123h-322v-192h322v-123h-322v-283h-147v283h-322v123h322v192h-322v123h256z" />
    <glyph glyph-name="section" unicode="&#xa7;" horiz-adv-x="1112" 
d="M119 727c0 109.333 62.002 183.666 186.002 222.999c-54.667 34 -82 82 -82 144c0 79.333 33.5 147.5 100.5 204.5s170.167 85.5 309.5 85.5c104 0 203 -20.333 297 -61v-145c-86 46 -179.667 69 -281 69h-4c-182.667 0 -274 -51 -274 -153
c0 -16.667 2.66699 -30.167 8 -40.5s28.166 -25 68.499 -44s100.166 -37.5 179.499 -55.5c56 -12 102.667 -24.833 140 -38.5s76.166 -32.5 116.499 -56.5s71.166 -55.333 92.499 -94s32 -84 32 -136c0 -50.667 -17.167 -94.167 -51.5 -130.5s-76.166 -62.5 -125.499 -78.5
c48 -39.333 72 -92 72 -158c0 -87.333 -37.167 -155.5 -111.5 -204.5s-177.833 -73.5 -310.5 -73.5c-135.333 0 -252 24.333 -350 73v152c90 -56 203.333 -84 340 -84c190 0 285 45.667 285 137c0 40.667 -16.167 74.834 -48.5 102.501s-105.166 54.167 -218.499 79.5
c-122.667 28.667 -215 62.5 -277 101.5s-93 99.5 -93 181.5zM266.002 727c0 -16.667 2.83301 -30 8.5 -40s29 -24.667 70 -44s100.833 -37.666 179.5 -54.999c90 -19.333 163 -44 219 -74c78 23.333 117 61.666 117 114.999c0 40.667 -16.333 74.667 -49 102
s-105 54 -217 80c-65.333 15.333 -124 31.666 -176 48.999c-101.333 -19.333 -152 -63.666 -152 -132.999z" />
    <glyph glyph-name="dieresis" unicode="&#xa8;" horiz-adv-x="788" 
d="M162 1155v162h162v-162h-162zM465 1155v162h162v-162h-162z" />
    <glyph glyph-name="copyright" unicode="&#xa9;" horiz-adv-x="1593" 
d="M98 682c0 194 68.667 359.167 206 495.5s302.333 204.5 495 204.5c194 0 359.167 -68.167 495.5 -204.5s204.5 -301.5 204.5 -495.5c0 -192.667 -68.167 -357.167 -204.5 -493.5s-301.5 -204.5 -495.5 -204.5c-192.667 0 -357.667 68.167 -495 204.5
s-206 300.833 -206 493.5zM172 682c0 -172 61.5 -319.5 184.5 -442.5s270.5 -184.5 442.5 -184.5c173.333 0 321 61.5 443 184.5s183 270.5 183 442.5c0 173.333 -61 321.5 -183 444.5s-269.667 184.5 -443 184.5c-172 0 -319.5 -61.5 -442.5 -184.5
s-184.5 -271.167 -184.5 -444.5zM449 682c0 273.333 122.667 410 368 410c86 0 167.333 -15 244 -45v-82c-72.667 30 -150.667 45 -234 45c-101.333 0 -175.333 -26.333 -222 -79s-70 -135.667 -70 -249s23.5 -196.333 70.5 -249s120.833 -79 221.5 -79
c80.667 0 158.667 15.667 234 47v-82c-76.667 -30 -158 -45 -244 -45c-246 0 -368.667 136 -368 408z" />
    <glyph glyph-name="ordfeminine" unicode="&#xaa;" horiz-adv-x="806" 
d="M156 979c0 124 98.999 186.002 296.999 186.002l92 -6c0 95.333 -56 143.333 -168 144c-61.333 0 -116 -9.66699 -164 -29v80c48 18.667 104 28 168 28c164 0 246 -78.333 246 -235v-172c0 -48 -15.333 -86.333 -46 -115s-61.5 -46.334 -92.5 -53.001
s-62.833 -10 -95.5 -10s-64.667 3.33301 -96 10s-62.666 24.667 -93.999 54s-47 68.666 -47 117.999zM392.999 872.002c101.333 0.666992 152.001 35.667 152.001 105v108c-24.667 4 -58.334 6.33301 -101.001 7c-137.333 0 -206 -36.667 -206 -110s51.667 -110 155 -110z
" />
    <glyph glyph-name="guillemotleft" unicode="&#xab;" horiz-adv-x="1132" 
d="M63 522l347 389h198l-364 -389l364 -391h-198zM453 522l346 389h198l-364 -389l364 -391h-198z" />
    <glyph glyph-name="logicalnot" unicode="&#xac;" horiz-adv-x="1273" 
d="M199 528v136h876v-340h-135v204h-741z" />
    <glyph glyph-name="registered" unicode="&#xae;" horiz-adv-x="1593" 
d="M98 682c0 194 68.667 359.167 206 495.5s302.333 204.5 495 204.5c194 0 359.167 -68.167 495.5 -204.5s204.5 -301.5 204.5 -495.5c0 -192.667 -68.167 -357.167 -204.5 -493.5s-301.5 -204.5 -495.5 -204.5c-192.667 0 -357.667 68.167 -495 204.5
s-206 300.833 -206 493.5zM172 682c0 -172 61.5 -319.5 184.5 -442.5s270.5 -184.5 442.5 -184.5c173.333 0 321 61.5 443 184.5s183 270.5 183 442.5c0 173.333 -61 321.5 -183 444.5s-269.667 184.5 -443 184.5c-172 0 -319.5 -61.5 -442.5 -184.5
s-184.5 -271.167 -184.5 -444.5zM545 283l-0.00195312 798.001h293c87.333 0 154.5 -19.333 201.5 -58s70.5 -96.334 70.5 -173.001c0 -42 -7.5 -79.167 -22.5 -111.5s-34.167 -56.333 -57.5 -72s-42.666 -26.667 -57.999 -33s-30.666 -11.5 -45.999 -15.5l219 -335h-103
l-206 323h-205v-323h-86zM630.998 688.001h203c75.333 0 125.5 14.333 150.5 43s37.5 66.167 37.5 112.5s-12.667 83.833 -38 112.5s-75.333 43 -150 43h-203v-311z" />
    <glyph glyph-name="macron" unicode="&#xaf;" horiz-adv-x="825" 
d="M176 1180v108h479v-108h-479z" />
    <glyph glyph-name="degree" unicode="&#xb0;" horiz-adv-x="792" 
d="M168 1142c0 152 74.333 228 223 228c72.667 0 128 -19.5 166 -58.5s57 -95.167 57 -168.5c0 -151.333 -74.333 -227 -223 -227c0 -0.666992 -0.333008 -1 -1 -1c-148 0 -222 75.667 -222 227zM242 1143c0 -54.667 11.5 -94 34.5 -118s61.167 -36 114.5 -36
c52 0 90 12 114 36s36 63.333 36 118c0 53.333 -12 92.166 -36 116.499s-62 36.5 -114 36.5c-53.333 0 -91.5 -12.167 -114.5 -36.5s-34.5 -63.166 -34.5 -116.499z" />
    <glyph glyph-name="plusminus" unicode="&#xb1;" horiz-adv-x="1198" 
d="M231 68v122h727v-122h-727zM231 598v123h304v301h122v-301h301v-123h-301v-303h-122v303h-304z" />
    <glyph glyph-name="uni00B2" unicode="&#xb2;" horiz-adv-x="671" 
d="M109 948v69.999c88.667 65.333 172.834 142 252.501 230s119.5 167.667 119.5 239c0 83.333 -57.333 125 -172 125c-70.667 0 -134.667 -20.667 -192 -62v86c60 36.667 126 55.334 198 56.001c83.333 0 145.166 -20.167 185.499 -60.5s60.5 -88.833 60.5 -145.5
c0 -131.333 -107 -284 -321 -458h331v-80h-462z" />
    <glyph glyph-name="uni00B3" unicode="&#xb3;" horiz-adv-x="661" 
d="M109 985l0.000976562 82.0039c60 -32.667 122 -49 186 -49c135.333 0 203 47 203 141s-69 141 -207 141h-80v76h84c109.333 0 164 39.667 164 119c0 78 -58 117 -174 117c-58.667 0 -111.334 -12.333 -158.001 -37v80c54.667 24.667 110.667 37 168 37
c83.333 0 144.833 -19.5 184.5 -58.5s59.5 -85.167 59.5 -138.5c0 -32.667 -7.83301 -61.334 -23.5 -86.001s-31.834 -41 -48.501 -49l-23 -14c4 -1.33301 8.83301 -3.5 14.5 -6.5s16 -9.83301 31 -20.5s28.333 -22.834 40 -36.501s22.167 -31.834 31.5 -54.501
s14 -46.334 14 -71.001c0 -60 -22.167 -111.167 -66.5 -153.5s-112.166 -63.5 -203.499 -63.5c-68 0 -133.333 15 -196 45z" />
    <glyph glyph-name="acute" unicode="&#xb4;" horiz-adv-x="483" 
d="M123 1155l117 236h151l-170 -236h-98z" />
    <glyph glyph-name="uni00B5" unicode="&#xb5;" horiz-adv-x="1247" 
d="M203 -430v1452h147v-664c0 -30 3.16699 -56.167 9.5 -78.5s18 -45.833 35 -70.5s44.667 -43.834 83 -57.501s86.833 -20.5 145.5 -20.5c90 0 179.333 13 268 39v852h147v-938c-128.667 -66.667 -272 -100 -430 -100c-101.333 1.33301 -187.333 28.666 -258 81.999v-496
h-147z" />
    <glyph glyph-name="paragraph" unicode="&#xb6;" horiz-adv-x="911" 
d="M78 946c0 135.333 40.333 239.167 121 311.5s197.334 108.5 350.001 108.5h203v-1366h-136v524h-67c-152.667 0 -269.334 36.167 -350.001 108.5s-121 176.833 -121 313.5z" />
    <glyph glyph-name="periodcentered" unicode="&#xb7;" horiz-adv-x="636" 
d="M238 475v164h161v-164h-161z" />
    <glyph glyph-name="cedilla" unicode="&#xb8;" horiz-adv-x="518" 
d="M115 -246l168 236h116l-129 -236h-155z" />
    <glyph glyph-name="uni00B9" unicode="&#xb9;" horiz-adv-x="491" 
d="M109 1503v94l135 86h90v-735h-78v651z" />
    <glyph glyph-name="ordmasculine" unicode="&#xba;" horiz-adv-x="854" 
d="M156 1090c0 57.333 7.83301 106.332 23.5 146.999s37.167 71.334 64.5 92.001s55.333 35 84 43s60 12 94 12c177.333 0 266 -98 266 -294c0 -195.333 -88.667 -293 -266 -293c-75.333 0 -138.5 21.5 -189.5 64.5s-76.5 119.167 -76.5 228.5zM238 1089.5
c0 -76.333 14.667 -131.666 44 -165.999s76 -51.5 140 -51.5c65.333 0 112.333 17.167 141 51.5s43 89.666 43 165.999s-14.333 132 -43 167s-75.667 52.5 -141 52.5c-64 0 -110.667 -17.5 -140 -52.5s-44 -90.667 -44 -167z" />
    <glyph glyph-name="guillemotright" unicode="&#xbb;" horiz-adv-x="1132" 
d="M137 131l363 391l-363 389h197l348 -389l-348 -391h-197zM526 131l363 391l-363 389h197l348 -389l-348 -391h-197z" />
    <glyph glyph-name="onequarter" unicode="&#xbc;" horiz-adv-x="1433" 
d="M106 1200v94l134 86h92v-733h-80v651zM147 -45l895 1448h97l-895 -1448h-97zM788 221v84l347 428h90v-438h104v-74h-104v-221h-80v221h-357zM877 295h268v326z" />
    <glyph glyph-name="onehalf" unicode="&#xbd;" horiz-adv-x="1460" 
d="M106 1200v94l134 86h92v-733h-80v651zM147 -45l895 1448h97l-895 -1448h-97zM870 0l-0.000976562 70.002c88.667 65.333 172.667 141.666 252 228.999s119 166.666 119 237.999c0 84.667 -57.333 127 -172 127c-69.333 0 -133.333 -21.333 -192 -64v88
c65.333 36.667 131.333 55 198 55c84.667 0 146.834 -20 186.501 -60s59.5 -88.667 59.5 -146c0 -130 -107.333 -282.333 -322 -457h332v-80h-461z" />
    <glyph glyph-name="threequarters" unicode="&#xbe;" horiz-adv-x="1654" 
d="M135 684l0.00195312 80.0029c62.667 -31.333 125.667 -47 189 -47c133.333 0 200 46.667 200 140c0 46 -17.667 81.167 -53 105.5s-86.666 36.5 -153.999 36.5h-79v74h84c109.333 0 164 39.333 164 118c0 80 -58.333 120 -175 120c-56 0 -108.333 -13 -157 -39v82
c54.667 24.667 110.667 37 168 37c83.333 0 144.666 -19.5 183.999 -58.5s59 -85.833 59 -140.5c0 -32.667 -7.83301 -61.334 -23.5 -86.001s-30.834 -41 -45.501 -49l-25 -15c4 -1.33301 8.83301 -3.33301 14.5 -6s16 -9.5 31 -20.5s28.167 -22.833 39.5 -35.5
s21.833 -30.334 31.5 -53.001s14.5 -46.334 14.5 -71.001c0 -60 -21.833 -111.5 -65.5 -154.5s-111.834 -64.5 -204.501 -64.5c-65.333 0 -131 15.667 -197 47zM369.002 -44.9971l895 1448h96l-895 -1448h-96zM1010 221.003v84l346 428h90v-438h104v-74h-104v-221h-80v221
h-356zM1098 295.003h268v326z" />
    <glyph glyph-name="questiondown" unicode="&#xbf;" horiz-adv-x="989" 
d="M147 20c0 54.667 10.6709 101.832 32.0039 141.499s47 72.167 77 97.5l90 76c30 25.333 55.667 59.166 77 101.499s32 92.833 32 151.5v92h147v-102c0 -69.333 -10.5 -129.833 -31.5 -181.5s-46.5 -91.334 -76.5 -119.001s-60.167 -53.5 -90.5 -77.5s-56 -50.667 -77 -80
s-31.5 -62.666 -31.5 -99.999c0 -155.333 90 -233 270 -233c94 0 185.667 30 275 90v-160c-76.667 -51.333 -172.334 -77 -287.001 -77c-31.333 0 -62.333 2.33301 -93 7s-65.834 15.167 -105.501 31.5s-73.834 37.833 -102.501 64.5s-53.334 63.834 -74.001 111.501
s-31 102.834 -31 165.501zM446.004 859.998v162h164v-162h-164z" />
    <glyph glyph-name="Agrave" unicode="&#xc0;" horiz-adv-x="1325" 
d="M43 0l545 1366h147l543 -1366h-158l-164 426h-589l-164 -426h-160zM422 567h479l-239 625zM438 1718h152l117 -235h-99z" />
    <glyph glyph-name="Aacute" unicode="&#xc1;" horiz-adv-x="1325" 
d="M43 0l545 1366h147l543 -1366h-158l-164 426h-589l-164 -426h-160zM422 567h479l-239 625zM614 1483l117 235h152l-170 -235h-99z" />
    <glyph glyph-name="Acircumflex" unicode="&#xc2;" horiz-adv-x="1325" 
d="M43 0l545 1366h147l543 -1366h-158l-164 426h-589l-164 -426h-160zM422 567h479l-239 625zM455 1483l163 248h87l163 -248h-114l-92 145l-93 -145h-114z" />
    <glyph glyph-name="Atilde" unicode="&#xc3;" horiz-adv-x="1325" 
d="M43 0l545 1366h147l543 -1366h-158l-164 426h-589l-164 -426h-160zM373 1485v116.999c35.333 44 73.666 68 114.999 72h19c34 0 66.333 -8 97 -24l112 -60c30.667 -16 63 -24 97 -24c6.66699 0 13.667 0.333008 21 1c40.667 4 78.667 27.667 114 71v-112
c-35.333 -44 -73.333 -68.333 -114 -73c-8 -0.666992 -16 -1 -24 -1c-32.667 0 -64 8 -94 24l-112 59c-29.333 16 -60 24 -92 24c-8 0 -16 -0.333008 -24 -1c-41.333 -5.33301 -79.666 -29.666 -114.999 -72.999zM422 566.999h479l-239 625z" />
    <glyph glyph-name="Adieresis" unicode="&#xc4;" horiz-adv-x="1325" 
d="M43 0l545 1366h147l543 -1366h-158l-164 426h-589l-164 -426h-160zM422 567h479l-239 625zM428 1483v164h164v-164h-164zM731 1483v164h164v-164h-164z" />
    <glyph glyph-name="Aring" unicode="&#xc5;" horiz-adv-x="1325" 
d="M43 0l545 1366h147l543 -1366h-158l-164 426h-589l-164 -426h-160zM422 567h479l-239 625zM496 1591c0 54.667 14.333 96.334 43 125.001s69.5 43 122.5 43s93.833 -14.333 122.5 -43s43 -70.334 43 -125.001s-14.333 -96.334 -43 -125.001s-69.5 -43 -122.5 -43
s-93.833 14.333 -122.5 43s-43 70.334 -43 125.001zM569 1591.5c0 -35.667 7 -61 21 -76s38 -22.5 72 -22.5c32.667 0 56.167 7.5 70.5 22.5s21.5 40.333 21.5 76s-7.16699 61.334 -21.5 77.001s-37.833 23.5 -70.5 23.5c-34 0 -58 -7.83301 -72 -23.5
s-21 -41.334 -21 -77.001z" />
    <glyph glyph-name="AE" unicode="&#xc6;" horiz-adv-x="1939" 
d="M51 0l811 1366h955v-141h-691v-471h607v-144h-607v-469h691v-141h-838v428h-506l-252 -428h-170zM559 575h420v644h-45z" />
    <glyph glyph-name="Ccedilla" unicode="&#xc7;" horiz-adv-x="1286" 
d="M125 686c0 466.667 211 700 633 700c144.667 0 283.334 -25.667 416.001 -77v-142c-124.667 53.333 -258 80 -400 80c-173.333 0 -300.333 -44.667 -381 -134s-121 -231 -121 -425s40.333 -336 121 -426s207.667 -135 381 -135c139.333 0 272.666 26.667 399.999 80v-141
c-114.667 -45.333 -233.667 -71.333 -357 -78l-125 -232h-155l163 232c-383.333 23.333 -575 256 -575 698z" />
    <glyph glyph-name="Egrave" unicode="&#xc8;" horiz-adv-x="1159" 
d="M178 0v1366h862v-139h-714v-471h628v-144h-628v-473h714v-139h-862zM444 1718h152l117 -235h-99z" />
    <glyph glyph-name="Eacute" unicode="&#xc9;" horiz-adv-x="1159" 
d="M178 0v1366h862v-139h-714v-471h628v-144h-628v-473h714v-139h-862zM565 1483l115 235h151l-169 -235h-97z" />
    <glyph glyph-name="Ecircumflex" unicode="&#xca;" horiz-adv-x="1159" 
d="M178 0v1366h862v-139h-714v-471h628v-144h-628v-473h714v-139h-862zM412 1483l166 248h84l165 -248h-114l-92 145l-95 -145h-114z" />
    <glyph glyph-name="Edieresis" unicode="&#xcb;" horiz-adv-x="1159" 
d="M178 0v1366h862v-139h-714v-471h628v-144h-628v-473h714v-139h-862zM395 1483v164h162v-164h-162zM698 1483v164h162v-164h-162z" />
    <glyph glyph-name="Igrave" unicode="&#xcc;" horiz-adv-x="501" 
d="M33 1718h151l117 -235h-98zM178 0v1366h148v-1366h-148z" />
    <glyph glyph-name="Iacute" unicode="&#xcd;" horiz-adv-x="501" 
d="M178 0h148v1366h-148v-1366zM203 1483l116 235h152l-170 -235h-98z" />
    <glyph glyph-name="Icircumflex" unicode="&#xce;" horiz-adv-x="501" 
d="M45 1483l164 248h86l164 -248h-115l-92 145l-92 -145h-115zM178 0h148v1366h-148v-1366z" />
    <glyph glyph-name="Idieresis" unicode="&#xcf;" horiz-adv-x="501" 
d="M18 1483v164h164v-164h-164zM178 0h148v1366h-148v-1366zM322 1483v164h163v-164h-163z" />
    <glyph glyph-name="Eth" unicode="&#xd0;" horiz-adv-x="1468" 
d="M109 621v122h159v623h428c427.333 0 641 -227.333 641 -682c0 -456 -213.667 -684 -641 -684h-428v621h-159zM416 139h270c174.667 0 302.334 43.667 383.001 131s121 225.333 121 414s-40.333 326.667 -121 414s-208.334 131 -383.001 131h-270v-486h350v-122h-350v-482
z" />
    <glyph glyph-name="Ntilde" unicode="&#xd1;" horiz-adv-x="1490" 
d="M178 0v1366h168l815 -1151v1151h148v-1366h-166l-817 1151v-1151h-148zM455 1485v116.999c35.333 44 73.666 68 114.999 72h19c34 0 66.667 -8 98 -24l113 -60c30.667 -16 63 -24 97 -24c6.66699 0 13.667 0.333008 21 1c40.667 4 78.667 27.667 114 71v-112
c-35.333 -44 -73.333 -68.333 -114 -73c-8 -0.666992 -16 -1 -24 -1c-32.667 0 -64 8 -94 24l-113 59c-30 16 -61 24 -93 24c-8 0 -16 -0.333008 -24 -1c-41.333 -5.33301 -79.666 -29.666 -114.999 -72.999z" />
    <glyph glyph-name="Ograve" unicode="&#xd2;" 
d="M125 684c0 466.667 211 700 633 700s633 -233.333 633 -700s-211 -700 -633 -700s-633 233.333 -633 700zM272 684c0 -194 39 -336 117 -426s201 -135 369 -135s290.833 45 368.5 135s116.5 232 116.5 426s-38.833 336 -116.5 426s-200.5 135 -368.5 135
s-291 -45 -369 -135s-117 -232 -117 -426zM563 1718h150l116 -235h-96z" />
    <glyph glyph-name="Oacute" unicode="&#xd3;" 
d="M125 684c0 466.667 211 700 633 700s633 -233.333 633 -700s-211 -700 -633 -700s-633 233.333 -633 700zM272 684c0 -194 39 -336 117 -426s201 -135 369 -135s290.833 45 368.5 135s116.5 232 116.5 426s-38.833 336 -116.5 426s-200.5 135 -368.5 135
s-291 -45 -369 -135s-117 -232 -117 -426zM686 1483l115 235h151l-170 -235h-96z" />
    <glyph glyph-name="Ocircumflex" unicode="&#xd4;" 
d="M125 684c0 466.667 211 700 633 700s633 -233.333 633 -700s-211 -700 -633 -700s-633 233.333 -633 700zM272 684c0 -194 39 -336 117 -426s201 -135 369 -135s290.833 45 368.5 135s116.5 232 116.5 426s-38.833 336 -116.5 426s-200.5 135 -368.5 135
s-291 -45 -369 -135s-117 -232 -117 -426zM551 1483l164 248h86l164 -248h-115l-92 145l-92 -145h-115z" />
    <glyph glyph-name="Otilde" unicode="&#xd5;" 
d="M125 684c0 466.667 211 700 633 700c423.333 0 635 -233.333 635 -700s-211.667 -700 -635 -700c-422 0 -633 233.333 -633 700zM272 684c0 -194 39 -336 117 -426s201 -135 369 -135c169.333 0 292.833 45 370.5 135s116.5 232 116.5 426s-38.833 336 -116.5 426
s-201.167 135 -370.5 135c-168 0 -291 -45 -369 -135s-117 -232 -117 -426zM471 1485v116.999c35.333 44 73 68 113 72h19c34 0 67 -8 99 -24l112 -60c31.333 -16 63.666 -24 96.999 -24c6.66699 0 13.667 0.333008 21 1c40.667 4 79 27.667 115 71v-112
c-35.333 -44 -73.666 -68.333 -114.999 -73c-8 -0.666992 -16 -1 -24 -1c-32.667 0 -64 8 -94 24l-112 59c-30.667 16 -61.667 24 -93 24c-8 0 -16.333 -0.333008 -25 -1c-40 -5.33301 -77.667 -29.666 -113 -72.999z" />
    <glyph glyph-name="Odieresis" unicode="&#xd6;" 
d="M125 684c0 466.667 211 700 633 700s633 -233.333 633 -700s-211 -700 -633 -700s-633 233.333 -633 700zM272 684c0 -194 39 -336 117 -426s201 -135 369 -135s290.833 45 368.5 135s116.5 232 116.5 426s-38.833 336 -116.5 426s-200.5 135 -368.5 135
s-291 -45 -369 -135s-117 -232 -117 -426zM524 1483v164h164v-164h-164zM827 1483v164h164v-164h-164z" />
    <glyph glyph-name="multiply" unicode="&#xd7;" horiz-adv-x="985" 
d="M158 160l272 364l-272 365h131l207 -277l209 277h131l-273 -365l273 -364h-131l-209 276l-207 -276h-131z" />
    <glyph glyph-name="Oslash" unicode="&#xd8;" 
d="M102 0l158 188c-90 114.667 -135 280 -135 496c0 466.667 211 700 633 700c170.667 0 307.667 -39.333 411 -118l86 100h160l-160 -188c91.333 -116 137.333 -280.667 138 -494c0 -468 -211.667 -702 -635 -702c-169.333 0 -306 39.333 -410 118l-86 -100h-160zM272 684
c0 -168 28 -295.667 84 -383l721 856c-76.667 58.667 -183 88 -319 88c-168 0 -291 -45 -369 -135s-117 -232 -117 -426zM440 209c76.667 -58.667 182.667 -88 318 -88c169.333 0 292.833 45 370.5 135s116.5 232.667 116.5 428c0 162.667 -28 289.667 -84 381z" />
    <glyph glyph-name="Ugrave" unicode="&#xd9;" horiz-adv-x="1476" 
d="M178 561l0.00195312 805h148v-813c0 -289.333 135.833 -434 407.5 -434s407.5 144.667 407.5 434v813h147v-805c0 -187.333 -47.833 -330.333 -143.5 -429s-232.834 -148 -411.501 -148s-315.834 49.5 -411.501 148.5s-143.5 241.833 -143.5 428.5zM520.002 1718h152
l116 -235h-96z" />
    <glyph glyph-name="Uacute" unicode="&#xda;" horiz-adv-x="1476" 
d="M178 561l0.00195312 805h148v-813c0 -289.333 135.833 -434 407.5 -434s407.5 144.667 407.5 434v813h147v-805c0 -187.333 -47.833 -330.333 -143.5 -429s-232.834 -148 -411.501 -148s-315.834 49.5 -411.501 148.5s-143.5 241.833 -143.5 428.5zM678.002 1483l117 235
h151l-170 -235h-98z" />
    <glyph glyph-name="Ucircumflex" unicode="&#xdb;" horiz-adv-x="1476" 
d="M178 561l0.00195312 805h148v-813c0 -289.333 135.833 -434 407.5 -434s407.5 144.667 407.5 434v813h147v-805c0 -187.333 -47.833 -330.333 -143.5 -429s-232.834 -148 -411.501 -148s-315.834 49.5 -411.501 148.5s-143.5 241.833 -143.5 428.5zM526.002 1483l164 248
h86l164 -248h-115l-92 145l-92 -145h-115z" />
    <glyph glyph-name="Udieresis" unicode="&#xdc;" horiz-adv-x="1476" 
d="M178 561l0.00195312 805h148v-813c0 -289.333 135.833 -434 407.5 -434s407.5 144.667 407.5 434v813h147v-805c0 -187.333 -47.833 -330.333 -143.5 -429s-232.834 -148 -411.501 -148s-315.834 49.5 -411.501 148.5s-143.5 241.833 -143.5 428.5zM500.002 1483v164h164
v-164h-164zM803.002 1483v164h164v-164h-164z" />
    <glyph glyph-name="Yacute" unicode="&#xdd;" horiz-adv-x="1224" 
d="M25 1366h178l405 -596l404 596h178l-508 -739v-627h-147v627zM539 1483l116 235h150l-170 -235h-96z" />
    <glyph glyph-name="Thorn" unicode="&#xde;" horiz-adv-x="1167" 
d="M176 0v1366h148v-207h266c151.333 0 267.666 -36.5 348.999 -109.5s122 -177.833 122 -314.5s-40.667 -241.167 -122 -313.5s-197.666 -108.5 -348.999 -108.5h-266v-313h-148zM324 455h245c72.667 0 133.167 7.83301 181.5 23.5s83.5 38.5 105.5 68.5s37 59.333 45 88
s12 62.167 12 100.5s-4 71.833 -12 100.5s-23 58 -45 88s-57.167 52.833 -105.5 68.5s-108.833 23.5 -181.5 23.5h-245v-561z" />
    <glyph glyph-name="germandbls" unicode="&#xdf;" horiz-adv-x="1255" 
d="M180 0l-0.00292969 868c0 75.333 7.83301 143 23.5 203s40 114 73 162s78.5 85.167 136.5 111.5s127.333 39.5 208 39.5c152.667 0 266.5 -37.5 341.5 -112.5s112.5 -164.167 112.5 -267.5c0 -34 -6.5 -67.5 -19.5 -100.5s-28.333 -61.167 -46 -84.5
s-35.667 -43.833 -54 -61.5s-33.833 -31.167 -46.5 -40.5l-20 -12c6.66699 -2.66699 15.834 -6.83398 27.501 -12.501s32.167 -18.667 61.5 -39s54.833 -42.5 76.5 -66.5s41.834 -55.5 60.501 -94.5s28 -80.167 28 -123.5c0 -113.333 -50.167 -203.166 -150.5 -269.499
s-228.5 -99.5 -384.5 -99.5v133c108 0 199.5 20.5 274.5 61.5s112.5 103.833 112.5 188.5c0 86 -40.167 148.833 -120.5 188.5s-169.166 59.5 -266.499 59.5v129c96.667 0 174.167 20.833 232.5 62.5s87.5 102.167 87.5 181.5c0 82 -28.333 143 -85 183s-130.667 60 -222 60
c-94 0 -166.333 -29 -217 -87s-76 -158 -76 -300v-860h-148z" />
    <glyph glyph-name="agrave" unicode="&#xe0;" horiz-adv-x="1093" 
d="M115 313c0 46.667 8.50684 88.499 25.5068 125.499s37.833 67 62.5 90s56 42.667 94 59s71.667 28.333 101 36s64.166 13.5 104.499 17.5s69 6.33301 86 7s37.167 1 60.5 1l164 -10c0 91.333 -25.167 156.5 -75.5 195.5s-124.833 58.5 -223.5 58.5
c-110.667 0 -210.334 -16.333 -299.001 -49v143c100.667 35.333 203 53 307 53c143.333 0 252.666 -36.167 327.999 -108.5s113 -177.5 113 -315.5v-309c0 -65.333 -15.167 -121.166 -45.5 -167.499s-69.333 -79.833 -117 -100.5s-92.334 -35 -134.001 -43
s-82.834 -12 -123.501 -12c-31.333 0 -63.5 2 -96.5 6s-70.333 13.167 -112 27.5s-77.834 32.666 -108.501 54.999s-56.834 54.333 -78.501 96s-32.5 89.834 -32.5 144.501zM262.007 312.999c0 -128 92.667 -192 278 -192h3c181.333 0 272 62 272 186v197
c-45.333 8 -106 12 -182 12c-247.333 0 -371 -67.667 -371 -203zM356.007 1391h150l117 -236h-97z" />
    <glyph glyph-name="aacute" unicode="&#xe1;" horiz-adv-x="1093" 
d="M115 313c0 46.667 8.50684 88.499 25.5068 125.499s37.833 67 62.5 90s56 42.667 94 59s71.667 28.333 101 36s64.166 13.5 104.499 17.5s69 6.33301 86 7s37.167 1 60.5 1l164 -10c0 91.333 -25.167 156.5 -75.5 195.5s-124.833 58.5 -223.5 58.5
c-110.667 0 -210.334 -16.333 -299.001 -49v143c100.667 35.333 203 53 307 53c143.333 0 252.666 -36.167 327.999 -108.5s113 -177.5 113 -315.5v-309c0 -65.333 -15.167 -121.166 -45.5 -167.499s-69.333 -79.833 -117 -100.5s-92.334 -35 -134.001 -43
s-82.834 -12 -123.501 -12c-31.333 0 -63.5 2 -96.5 6s-70.333 13.167 -112 27.5s-77.834 32.666 -108.501 54.999s-56.834 54.333 -78.501 96s-32.5 89.834 -32.5 144.501zM262.007 312.999c0 -128 92.667 -192 278 -192h3c181.333 0 272 62 272 186v197
c-45.333 8 -106 12 -182 12c-247.333 0 -371 -67.667 -371 -203zM467.007 1155l117 236h151l-170 -236h-98z" />
    <glyph glyph-name="acircumflex" unicode="&#xe2;" horiz-adv-x="1093" 
d="M115 313c0 46.667 8.50684 88.499 25.5068 125.499s37.833 67 62.5 90s56 42.667 94 59s71.667 28.333 101 36s64.166 13.5 104.499 17.5s69 6.33301 86 7s37.167 1 60.5 1l164 -10c0 91.333 -25.167 156.5 -75.5 195.5s-124.833 58.5 -223.5 58.5
c-110.667 0 -210.334 -16.333 -299.001 -49v143c100.667 35.333 203 53 307 53c143.333 0 252.666 -36.167 327.999 -108.5s113 -177.5 113 -315.5v-309c0 -65.333 -15.167 -121.166 -45.5 -167.499s-69.333 -79.833 -117 -100.5s-92.334 -35 -134.001 -43
s-82.834 -12 -123.501 -12c-31.333 0 -63.5 2 -96.5 6s-70.333 13.167 -112 27.5s-77.834 32.666 -108.501 54.999s-56.834 54.333 -78.501 96s-32.5 89.834 -32.5 144.501zM262.007 312.999c0 -128 92.667 -192 278 -192h3c181.333 0 272 62 272 186v197
c-45.333 8 -106 12 -182 12c-247.333 0 -371 -67.667 -371 -203zM362.007 1155l164 246h86l164 -246h-114l-93 143l-92 -143h-115z" />
    <glyph glyph-name="atilde" unicode="&#xe3;" horiz-adv-x="1093" 
d="M115 313c0 46.667 8.50684 88.499 25.5068 125.499s37.833 67 62.5 90s55.667 42.667 93 59s71 28.333 101 36s65.167 13.5 105.5 17.5s68.666 6.33301 84.999 7s36.166 1 59.499 1l166 -10c0 91.333 -25.167 156.5 -75.5 195.5s-124.833 58.5 -223.5 58.5
c-100 0 -199.667 -15.667 -299 -47v141c94 35.333 196.333 53 307 53c143.333 0 252.666 -36.167 327.999 -108.5s113 -177.5 113 -315.5v-309c0 -65.333 -15.167 -121.166 -45.5 -167.499s-69.333 -79.833 -117 -100.5s-92.334 -35 -134.001 -43s-82.834 -12 -123.501 -12
c-31.333 0 -63.5 2 -96.5 6s-70.333 13.167 -112 27.5s-77.834 32.666 -108.501 54.999s-56.834 54.333 -78.501 96s-32.5 89.834 -32.5 144.501zM262.007 314.999c0 -129.333 92.667 -194 278 -194h3c181.333 0 272 62 272 186v197c-45.333 8 -106 12 -182 12
c-247.333 0 -371 -67 -371 -201zM268.007 1157l0.000976562 117c35.333 44 73.333 68 114 72c7.33301 0.666992 14.333 1 21 1c33.333 0 65.666 -8.33301 96.999 -25l114 -60c30.667 -16 63 -24 97 -24c6.66699 0 13.667 0.333008 21 1c40.667 4 78.667 28 114 72v-113
c-35.333 -44 -73.333 -68.333 -114 -73c-8 -0.666992 -16 -1 -24 -1c-32.667 0 -64 8 -94 24l-114 60c-30 15.333 -61.333 23 -94 23c-7.33301 0 -15 -0.333008 -23 -1c-40.667 -4.66699 -79 -29 -115 -73z" />
    <glyph glyph-name="adieresis" unicode="&#xe4;" horiz-adv-x="1093" 
d="M115 313c0 46.667 8.50684 88.499 25.5068 125.499s37.833 67 62.5 90s56 42.667 94 59s71.667 28.333 101 36s64.166 13.5 104.499 17.5s69 6.33301 86 7s37.167 1 60.5 1l164 -10c0 91.333 -25.167 156.5 -75.5 195.5s-124.833 58.5 -223.5 58.5
c-110.667 0 -210.334 -16.333 -299.001 -49v143c100.667 35.333 203 53 307 53c143.333 0 252.666 -36.167 327.999 -108.5s113 -177.5 113 -315.5v-309c0 -65.333 -15.167 -121.166 -45.5 -167.499s-69.333 -79.833 -117 -100.5s-92.334 -35 -134.001 -43
s-82.834 -12 -123.501 -12c-31.333 0 -63.5 2 -96.5 6s-70.333 13.167 -112 27.5s-77.834 32.666 -108.501 54.999s-56.834 54.333 -78.501 96s-32.5 89.834 -32.5 144.501zM262.007 312.999c0 -128 92.667 -192 278 -192h3c181.333 0 272 62 272 186v197
c-45.333 8 -106 12 -182 12c-247.333 0 -371 -67.667 -371 -203zM336.007 1155v162h164v-162h-164zM639.007 1155v162h164v-162h-164z" />
    <glyph glyph-name="aring" unicode="&#xe5;" horiz-adv-x="1093" 
d="M115 313c0 46.667 8.50684 88.499 25.5068 125.499s37.833 67 62.5 90s56 42.667 94 59s71.667 28.333 101 36s64.166 13.5 104.499 17.5s69 6.33301 86 7s37.167 1 60.5 1l164 -10c0 91.333 -25.167 156.5 -75.5 195.5s-124.833 58.5 -223.5 58.5
c-110.667 0 -210.334 -16.333 -299.001 -49v143c100.667 35.333 203 53 307 53c143.333 0 252.666 -36.167 327.999 -108.5s113 -177.5 113 -315.5v-309c0 -65.333 -15.167 -121.166 -45.5 -167.499s-69.333 -79.833 -117 -100.5s-92.334 -35 -134.001 -43
s-82.834 -12 -123.501 -12c-31.333 0 -63.5 2 -96.5 6s-70.333 13.167 -112 27.5s-77.834 32.666 -108.501 54.999s-56.834 54.333 -78.501 96s-32.5 89.834 -32.5 144.501zM262.007 312.999c0 -128 92.667 -192 278 -192h3c181.333 0 272 62 272 186v197
c-45.333 8 -106 12 -182 12c-247.333 0 -371 -67.667 -371 -203zM393.007 1264c0 54.667 14.333 96.334 43 125.001s69.667 43 123 43s94.333 -14.333 123 -43s43 -70.334 43 -125.001s-14.333 -96.334 -43 -125.001s-69.667 -43 -123 -43s-94.333 14.333 -123 43
s-43 70.334 -43 125.001zM467.007 1263.5c0 -35.667 6.83301 -61.334 20.5 -77.001s37.5 -23.5 71.5 -23.5c32.667 0 56.167 7.83301 70.5 23.5s21.5 41.334 21.5 77.001s-7.16699 61 -21.5 76s-37.833 22.5 -70.5 22.5c-34 0 -57.833 -7.5 -71.5 -22.5
s-20.5 -40.333 -20.5 -76z" />
    <glyph glyph-name="ae" unicode="&#xe6;" horiz-adv-x="1824" 
d="M111 313c0 46.667 8.50293 88.501 25.5029 125.501s37.833 67 62.5 90s55.667 42.667 93 59s71 28.333 101 36s65.167 13.5 105.5 17.5s68.666 6.33301 84.999 7s36.166 1 59.499 1l166 -10c0 91.333 -25.333 156.5 -76 195.5s-125 58.5 -223 58.5
c-110.667 0 -210.334 -16.333 -299.001 -49v143c101.333 35.333 203 53 305 53c178.667 0 304.334 -56 377.001 -168c74.667 112 195.334 168 362.001 168c62.667 0 119.667 -9.83301 171 -29.5s92 -42.834 122 -69.501s56.333 -61.5 79 -104.5s38.834 -79.5 48.501 -109.5
s17.167 -66.167 22.5 -108.5s8 -68.5 8 -78.5v-44l-4 -72h-746c9.33301 -102.667 40.666 -177.167 93.999 -223.5s133.333 -69.5 240 -69.5c146 0 262.667 25.333 350 76v-152c-101.333 -47.333 -221.333 -71 -360 -71h-6c-165.333 0 -287 50.333 -365 151
c-68.667 -100.667 -191 -151 -367 -151h-3c-31.333 0 -63.5 2 -96.5 6s-70.333 13.167 -112 27.5s-77.834 32.666 -108.501 54.999s-56.834 54.333 -78.501 96s-32.5 89.834 -32.5 144.501zM258.003 313.001c0 -128 92.667 -192 278 -192h3c180 0 270 62 270 186v197
c-44 8 -104 12 -180 12c-247.333 0 -371 -67.667 -371 -203zM956.003 555.001h598c0 23.333 -2.66699 49.333 -8 78s-16.5 65.5 -33.5 110.5s-47.667 82.5 -92 112.5s-99.5 45 -165.5 45c-100 0 -173.167 -26.333 -219.5 -79s-72.833 -141.667 -79.5 -267z" />
    <glyph glyph-name="ccedilla" unicode="&#xe7;" horiz-adv-x="966" 
d="M119 512c0 104 14.332 192.498 42.999 265.498s67.5 127.5 116.5 163.5s99.167 61.5 150.5 76.5s107.666 22.5 168.999 22.5c102.667 0 203.667 -19 303 -57v-141c-93.333 38 -189 57 -287 57c-121.333 0 -209.666 -30.667 -264.999 -92s-83 -159.666 -83 -294.999
c0 -136.667 27.667 -235.334 83 -296.001s143.666 -91 264.999 -91c102.667 0 198.334 19 287.001 57v-143c-76.667 -27.333 -151.667 -45 -225 -53l-127 -230h-156l164 228c-57.333 2.66699 -109.833 12.834 -157.5 30.501s-93.667 45.334 -138 83.001
s-79.166 91.667 -104.499 162s-38 154.5 -38 252.5z" />
    <glyph glyph-name="egrave" unicode="&#xe8;" horiz-adv-x="1136" 
d="M129 498v7.00195v8c0 351.333 149.667 527 449 527c62.667 0 119.5 -9.83301 170.5 -29.5s91.5 -42.834 121.5 -69.501s56.333 -61.5 79 -104.5s38.834 -79.5 48.501 -109.5s17.167 -66.167 22.5 -108.5s8 -68.5 8 -78.5v-44l-4 -72h-745
c9.33301 -102.667 40.666 -177.167 93.999 -223.5s132.333 -69.5 237 -69.5c148.667 0 265.667 25.333 351 76v-152c-98.667 -47.333 -218.334 -71 -359.001 -71h-6c-60 0 -115 7.16699 -165 21.5s-99.167 39.166 -147.5 74.499s-86.166 88.5 -113.499 159.5
s-41 157.167 -41 258.5zM279 555.002h598c0 23.333 -2.83301 49.333 -8.5 78s-17 65.5 -34 110.5s-47.667 82.5 -92 112.5s-99.166 45 -164.499 45c-101.333 0 -174.833 -26.333 -220.5 -79s-71.834 -141.667 -78.501 -267zM395 1391h152l117 -236h-99z" />
    <glyph glyph-name="eacute" unicode="&#xe9;" horiz-adv-x="1136" 
d="M129 498v7.00195v8c0 351.333 149.667 527 449 527c62.667 0 119.5 -9.83301 170.5 -29.5s91.5 -42.834 121.5 -69.501s56.333 -61.5 79 -104.5s38.834 -79.5 48.501 -109.5s17.167 -66.167 22.5 -108.5s8 -68.5 8 -78.5v-44l-4 -72h-745
c9.33301 -102.667 40.666 -177.167 93.999 -223.5s132.333 -69.5 237 -69.5c148.667 0 265.667 25.333 351 76v-152c-98.667 -47.333 -218.334 -71 -359.001 -71h-6c-60 0 -115 7.16699 -165 21.5s-99.167 39.166 -147.5 74.499s-86.166 88.5 -113.499 159.5
s-41 157.167 -41 258.5zM279 555.002h598c0 23.333 -2.83301 49.333 -8.5 78s-17 65.5 -34 110.5s-47.667 82.5 -92 112.5s-99.166 45 -164.499 45c-101.333 0 -174.833 -26.333 -220.5 -79s-71.834 -141.667 -78.501 -267zM506 1155l117 236h151l-170 -236h-98z" />
    <glyph glyph-name="ecircumflex" unicode="&#xea;" horiz-adv-x="1136" 
d="M129 498v7.00195v8c0 351.333 149.667 527 449 527c62.667 0 119.5 -9.83301 170.5 -29.5s91.5 -42.834 121.5 -69.501s56.333 -61.5 79 -104.5s38.834 -79.5 48.501 -109.5s17.167 -66.167 22.5 -108.5s8 -68.5 8 -78.5v-44l-4 -72h-745
c9.33301 -102.667 40.666 -177.167 93.999 -223.5s132.333 -69.5 237 -69.5c148.667 0 265.667 25.333 351 76v-152c-98.667 -47.333 -218.334 -71 -359.001 -71h-6c-60 0 -115 7.16699 -165 21.5s-99.167 39.166 -147.5 74.499s-86.166 88.5 -113.499 159.5
s-41 157.167 -41 258.5zM279 555.002h598c0 23.333 -2.83301 49.333 -8.5 78s-17 65.5 -34 110.5s-47.667 82.5 -92 112.5s-99.166 45 -164.499 45c-101.333 0 -174.833 -26.333 -220.5 -79s-71.834 -141.667 -78.501 -267zM371 1155l164 246h86l163 -246h-114l-92 143
l-93 -143h-114z" />
    <glyph glyph-name="edieresis" unicode="&#xeb;" horiz-adv-x="1136" 
d="M129 498v7.00195v8c0 351.333 149.667 527 449 527c62.667 0 119.5 -9.83301 170.5 -29.5s91.5 -42.834 121.5 -69.501s56.333 -61.5 79 -104.5s38.834 -79.5 48.501 -109.5s17.167 -66.167 22.5 -108.5s8 -68.5 8 -78.5v-44l-4 -72h-745
c9.33301 -102.667 40.666 -177.167 93.999 -223.5s132.333 -69.5 237 -69.5c148.667 0 265.667 25.333 351 76v-152c-98.667 -47.333 -218.334 -71 -359.001 -71h-6c-60 0 -115 7.16699 -165 21.5s-99.167 39.166 -147.5 74.499s-86.166 88.5 -113.499 159.5
s-41 157.167 -41 258.5zM279 555.002h598c0 23.333 -2.83301 49.333 -8.5 78s-17 65.5 -34 110.5s-47.667 82.5 -92 112.5s-99.166 45 -164.499 45c-101.333 0 -174.833 -26.333 -220.5 -79s-71.834 -141.667 -78.501 -267zM344 1155v162h164v-162h-164zM647 1155v162h164
v-162h-164z" />
    <glyph glyph-name="igrave" unicode="&#xec;" horiz-adv-x="552" 
d="M57 1391h152l117 -236h-99zM203 0v1022h147v-1022h-147z" />
    <glyph glyph-name="iacute" unicode="&#xed;" horiz-adv-x="552" 
d="M203 0h147v1022h-147v-1022zM227 1155l115 236h152l-170 -236h-97z" />
    <glyph glyph-name="icircumflex" unicode="&#xee;" horiz-adv-x="552" 
d="M68 1155l165 246h84l166 -246h-114l-93 143l-94 -143h-114zM203 0h147v1022h-147v-1022z" />
    <glyph glyph-name="idieresis" unicode="&#xef;" horiz-adv-x="552" 
d="M43 1155v162h162v-162h-162zM203 0h147v1022h-147v-1022zM346 1155v162h162v-162h-162z" />
    <glyph glyph-name="eth" unicode="&#xf0;" horiz-adv-x="1193" 
d="M119 444c0 132.667 41.668 237.5 125.001 314.5s196.666 115.5 339.999 115.5c124 0 226.333 -30 307 -90c-16.667 162.667 -74.667 284.334 -174 365.001l-230 -129l-55 98l170 94c-57.333 22 -121.333 33 -192 33c-27.333 0 -64.333 -2.66699 -111 -8v137
c44 6.66699 86.333 10 127 10c122.667 0 232 -28.667 328 -86l190 107l53 -98l-145 -84c131.333 -128.667 197 -327.334 197 -596.001c0 -428.667 -155 -643 -465 -643c-82 0 -154.167 13.667 -216.5 41s-110.833 63.833 -145.5 109.5s-60.5 94.667 -77.5 147
s-25.5 106.5 -25.5 162.5zM266.001 446c0 -27.333 3.16797 -55.335 9.50098 -84.002s19 -63 38 -103s51.833 -72.667 98.5 -98s104 -38 172 -38c28.667 0 52.167 1 70.5 3s44.5 11.833 78.5 29.5s61.667 42.667 83 75s40.5 81.833 57.5 148.5s26.167 147.334 27.5 242.001
c-73.333 77.333 -178 116 -314 116h-3c-102.667 0 -181.334 -25.167 -236.001 -75.5s-82 -122.166 -82 -215.499z" />
    <glyph glyph-name="ntilde" unicode="&#xf1;" horiz-adv-x="1189" 
d="M168 0l0.000976562 940.001c134 66.667 278 100 432 100c128.667 0 228.5 -32.667 299.5 -98s106.5 -157.333 106.5 -276v-666h-148v666c0 28.667 -3 54.167 -9 76.5s-17.667 46.166 -35 71.499s-45.333 44.833 -84 58.5s-87.334 20.5 -146.001 20.5
c-86 0 -175.667 -13.667 -269 -41v-852h-147zM299.001 1157l0.000976562 117c35.333 44 73 68 113 72c7.33301 0.666992 14.333 1 21 1c32.667 0 65 -8.33301 97 -25l112 -60c31.333 -16 63.666 -24 96.999 -24c6.66699 0 13.667 0.333008 21 1c40.667 4 78.667 28 114 72
v-113c-35.333 -44 -73.333 -68.333 -114 -73c-8 -0.666992 -16 -1 -24 -1c-32.667 0 -64 8 -94 24l-112 60c-30.667 15.333 -62 23 -94 23c-8 0 -16 -0.333008 -24 -1c-40 -4.66699 -77.667 -29 -113 -73z" />
    <glyph glyph-name="ograve" unicode="&#xf2;" horiz-adv-x="1155" 
d="M100 512c0 104 14.333 192.5 43 265.5s67.667 127.5 117 163.5s99.833 61.5 151.5 76.5s108.334 22.5 170.001 22.5s118 -7.5 169 -22.5s101.167 -40.5 150.5 -76.5s88.333 -90.5 117 -163.5s43 -161.5 43 -265.5s-14.333 -192.5 -43 -265.5s-67.667 -127.5 -117 -163.5
s-99.5 -61.5 -150.5 -76.5s-107.333 -22.5 -169 -22.5s-118.334 7.5 -170.001 22.5s-102.167 40.5 -151.5 76.5s-88.333 90.5 -117 163.5s-43 161.5 -43 265.5zM248 512c0 -138 26.667 -238.002 80 -300.002s138 -93 254 -93s200.167 31.333 252.5 94
s78.5 162.334 78.5 299.001s-26.167 236.334 -78.5 299.001s-136.5 94 -252.5 94s-200.667 -31 -254 -93s-80 -162 -80 -300zM362 1391h152l117 -236h-99z" />
    <glyph glyph-name="oacute" unicode="&#xf3;" horiz-adv-x="1155" 
d="M100 512c0 104 14.333 192.5 43 265.5s67.667 127.5 117 163.5s99.833 61.5 151.5 76.5s108.334 22.5 170.001 22.5s118 -7.5 169 -22.5s101.167 -40.5 150.5 -76.5s88.333 -90.5 117 -163.5s43 -161.5 43 -265.5s-14.333 -192.5 -43 -265.5s-67.667 -127.5 -117 -163.5
s-99.5 -61.5 -150.5 -76.5s-107.333 -22.5 -169 -22.5s-118.334 7.5 -170.001 22.5s-102.167 40.5 -151.5 76.5s-88.333 90.5 -117 163.5s-43 161.5 -43 265.5zM248 512c0 -138 26.667 -238.002 80 -300.002s138 -93 254 -93s200.167 31.333 252.5 94
s78.5 162.334 78.5 299.001s-26.167 236.334 -78.5 299.001s-136.5 94 -252.5 94s-200.667 -31 -254 -93s-80 -162 -80 -300zM530 1155l117 236h152l-170 -236h-99z" />
    <glyph glyph-name="ocircumflex" unicode="&#xf4;" horiz-adv-x="1155" 
d="M100 512c0 104 14.333 192.5 43 265.5s67.667 127.5 117 163.5s99.833 61.5 151.5 76.5s108.334 22.5 170.001 22.5s118 -7.5 169 -22.5s101.167 -40.5 150.5 -76.5s88.333 -90.5 117 -163.5s43 -161.5 43 -265.5s-14.333 -192.5 -43 -265.5s-67.667 -127.5 -117 -163.5
s-99.5 -61.5 -150.5 -76.5s-107.333 -22.5 -169 -22.5s-118.334 7.5 -170.001 22.5s-102.167 40.5 -151.5 76.5s-88.333 90.5 -117 163.5s-43 161.5 -43 265.5zM248 512c0 -138 26.667 -238.002 80 -300.002s138 -93 254 -93s200.167 31.333 252.5 94
s78.5 162.334 78.5 299.001s-26.167 236.334 -78.5 299.001s-136.5 94 -252.5 94s-200.667 -31 -254 -93s-80 -162 -80 -300zM373 1155l166 246h84l165 -246h-114l-92 143l-95 -143h-114z" />
    <glyph glyph-name="otilde" unicode="&#xf5;" horiz-adv-x="1155" 
d="M100 512c0 104 14.333 192.5 43 265.5s67.667 127.5 117 163.5s99.5 61.5 150.5 76.5s107.333 22.5 169 22.5s118.334 -7.5 170.001 -22.5s102.167 -40.5 151.5 -76.5s88.333 -90.5 117 -163.5s43 -161.5 43 -265.5s-14.333 -192.5 -43 -265.5
s-67.667 -127.5 -117 -163.5s-99.833 -61.5 -151.5 -76.5s-108.334 -22.5 -170.001 -22.5s-118 7.5 -169 22.5s-101.167 40.5 -150.5 76.5s-88.333 90.5 -117 163.5s-43 161.5 -43 265.5zM248 512c0 -138 26.333 -238 79 -300s137 -93 253 -93s200.5 31 253.5 93
s79.5 162 79.5 300s-26.5 238 -79.5 300s-137.5 93 -253.5 93s-200.333 -31 -253 -93s-79 -162 -79 -300zM301 1159l-0.00390625 115c35.333 44 73 68.333 113 73c8 0.666992 15.667 1 23 1c32.667 0 64.334 -8 95.001 -24l112 -60c30.667 -16.667 62.334 -25 95.001 -25
c7.33301 0 15 0.333008 23 1c40.667 4.66699 79 29 115 73v-115c-35.333 -44 -73.666 -68.333 -114.999 -73c-8 -0.666992 -15.667 -1 -23 -1c-33.333 0 -65 8 -95 24l-112 60c-31.333 16 -63.666 24 -96.999 24c-6.66699 0 -13.667 -0.333008 -21 -1
c-40 -4 -77.667 -28 -113 -72z" />
    <glyph glyph-name="odieresis" unicode="&#xf6;" horiz-adv-x="1155" 
d="M100 512c0 104 14.333 192.5 43 265.5s67.667 127.5 117 163.5s99.833 61.5 151.5 76.5s108.334 22.5 170.001 22.5s118 -7.5 169 -22.5s101.167 -40.5 150.5 -76.5s88.333 -90.5 117 -163.5s43 -161.5 43 -265.5s-14.333 -192.5 -43 -265.5s-67.667 -127.5 -117 -163.5
s-99.5 -61.5 -150.5 -76.5s-107.333 -22.5 -169 -22.5s-118.334 7.5 -170.001 22.5s-102.167 40.5 -151.5 76.5s-88.333 90.5 -117 163.5s-43 161.5 -43 265.5zM248 512c0 -138 26.667 -238.002 80 -300.002s138 -93 254 -93s200.167 31.333 252.5 94
s78.5 162.334 78.5 299.001s-26.167 236.334 -78.5 299.001s-136.5 94 -252.5 94s-200.667 -31 -254 -93s-80 -162 -80 -300zM348 1155v162h162v-162h-162zM651 1155v162h162v-162h-162z" />
    <glyph glyph-name="divide" unicode="&#xf7;" horiz-adv-x="1286" 
d="M227 465h832v123h-832v-123zM561 152v163h164v-163h-164zM561 735v164h164v-164h-164z" />
    <glyph glyph-name="oslash" unicode="&#xf8;" horiz-adv-x="1175" 
d="M76 0l126.999 152c-64 88.667 -96.333 208.667 -97 360c0 104 14.5 192.5 43.5 265.5s68 127.5 117 163.5s99.5 61.5 151.5 76.5s108.667 22.5 170 22.5c120 0 219 -27.333 297 -82l53 64h160l-125 -150c62.667 -87.333 94 -207.333 94 -360
c0 -104 -14.333 -192.5 -43 -265.5s-67.5 -127.5 -116.5 -163.5s-99.167 -61.5 -150.5 -76.5s-107.666 -22.5 -168.999 -22.5c-121.333 0 -220.333 26.333 -297 79l-55 -63h-160zM253.999 512c0 -105.333 15 -187.333 45 -246l496 586c-52 35.333 -121 53 -207 53
c-116 0 -200.667 -31 -254 -93s-80 -162 -80 -300zM380.999 170c50.667 -34 119.667 -51 207 -51c116 0 200.333 31 253 93s79 162 79 300c0 104 -15.333 186 -46 246z" />
    <glyph glyph-name="ugrave" unicode="&#xf9;" horiz-adv-x="1202" 
d="M168 430v592h147v-600c0 -104 22.667 -180.167 68 -228.5s116.333 -72.5 213 -72.5c95.333 0 166 24.167 212 72.5s69 124.5 69 228.5v600h147v-592c0 -142 -37.167 -251.833 -111.5 -329.5s-179.833 -116.5 -316.5 -116.5s-242.167 38.833 -316.5 116.5
s-111.5 187.5 -111.5 329.5zM383 1391h152l116 -236h-98z" />
    <glyph glyph-name="uacute" unicode="&#xfa;" horiz-adv-x="1202" 
d="M168 430v592h147v-600c0 -104 22.667 -180.167 68 -228.5s116.333 -72.5 213 -72.5c95.333 0 166 24.167 212 72.5s69 124.5 69 228.5v600h147v-592c0 -142 -37.167 -251.833 -111.5 -329.5s-179.833 -116.5 -316.5 -116.5s-242.167 38.833 -316.5 116.5
s-111.5 187.5 -111.5 329.5zM541 1155l116 236h150l-170 -236h-96z" />
    <glyph glyph-name="ucircumflex" unicode="&#xfb;" horiz-adv-x="1202" 
d="M168 430v592h147v-600c0 -104 22.667 -180.167 68 -228.5s116.333 -72.5 213 -72.5c95.333 0 166 24.167 212 72.5s69 124.5 69 228.5v600h147v-592c0 -142 -37.167 -251.833 -111.5 -329.5s-179.833 -116.5 -316.5 -116.5s-242.167 38.833 -316.5 116.5
s-111.5 187.5 -111.5 329.5zM389 1155l164 246h84l166 -246h-115l-92 143l-92 -143h-115z" />
    <glyph glyph-name="udieresis" unicode="&#xfc;" horiz-adv-x="1202" 
d="M168 430v592h147v-600c0 -104 22.667 -180.167 68 -228.5s116.333 -72.5 213 -72.5c95.333 0 166 24.167 212 72.5s69 124.5 69 228.5v600h147v-592c0 -142 -37.167 -251.833 -111.5 -329.5s-179.833 -116.5 -316.5 -116.5s-242.167 38.833 -316.5 116.5
s-111.5 187.5 -111.5 329.5zM362 1155v162h164v-162h-164zM666 1155v162h163v-162h-163z" />
    <glyph glyph-name="yacute" unicode="&#xfd;" horiz-adv-x="1028" 
d="M63 1022l158.002 -0.000976562l293 -809l293 809h158l-418 -1122c-72.667 -196.667 -179.334 -295 -320.001 -295c-34 0 -66.667 6 -98 18v135c27.333 -12 56.666 -18 87.999 -18c42 0 81.5 22.833 118.5 68.5s63.833 91.834 80.5 138.501l24 69zM449.002 1155l116 236
h152l-170 -236h-98z" />
    <glyph glyph-name="thorn" unicode="&#xfe;" horiz-adv-x="1136" 
d="M170 -377l0.000976562 1776h147v-414c82 27.333 166 41 252 41c46.667 0 90.5 -4.16699 131.5 -12.5s82.667 -24 125 -47s78.833 -53 109.5 -90s55.5 -86.833 74.5 -149.5s28.5 -135 28.5 -217c0 -101.333 -14 -187.5 -42 -258.5s-66.167 -124.167 -114.5 -159.5
s-97.833 -60.166 -148.5 -74.499s-105.334 -21.5 -164.001 -21.5c-86 0 -170 13.667 -252 41v-414h-147zM317.001 183.999c78 -34 162 -51 252 -51c113.333 0 195.333 29.667 246 89s76 155.333 76 288s-25.333 229 -76 289s-132.667 90 -246 90c-90 0 -174 -17 -252 -51
v-654z" />
    <glyph glyph-name="ydieresis" unicode="&#xff;" horiz-adv-x="1028" 
d="M63 1022l158.002 -0.000976562l293 -809l293 809h158l-418 -1122c-72.667 -196.667 -179.334 -295 -320.001 -295c-34 0 -66.667 6 -98 18v135c27.333 -12 56.666 -18 87.999 -18c42 0 81.5 22.833 118.5 68.5s63.833 91.834 80.5 138.501l24 69zM279.002 1155v162h161
v-162h-161zM582.002 1155v162h161v-162h-161z" />
    <glyph glyph-name="OE" unicode="&#x152;" horiz-adv-x="2029" 
d="M123 684c0 466.667 211 700 633 700c106.667 0 198 -15 274 -45v27h864v-139h-716v-471h628v-144h-628v-473h716v-139h-864v27c-78 -28.667 -169.333 -43 -274 -43c-422 0 -633 233.333 -633 700zM270 684c0 -194 39.001 -336 117.001 -426s201 -135 369 -135
c113.333 0 204.666 19.667 273.999 59v1004c-72.667 39.333 -164 59 -274 59c-168 0 -291 -45 -369 -135s-117 -232 -117 -426z" />
    <glyph glyph-name="oe" unicode="&#x153;" horiz-adv-x="1921" 
d="M102 512c0 104 14.3301 192.501 42.9971 265.501s67.667 127.5 117 163.5s99.5 61.5 150.5 76.5s107.5 22.5 169.5 22.5c186 0 318.333 -62 397 -186c75.333 124 201 186 377 186c62.667 0 119.334 -9.83301 170.001 -29.5s91.334 -42.834 122.001 -69.501
s56.834 -61.5 78.501 -104.5s37.334 -79.5 47.001 -109.5s17.167 -66.167 22.5 -108.5s8 -68.5 8 -78.5v-44l-2 -72h-745c9.33301 -102.667 40.666 -177.167 93.999 -223.5s132.666 -69.5 237.999 -69.5c146 0 262.667 25.333 350 76v-152
c-98.667 -47.333 -218.334 -71 -359.001 -71h-6c-184 0 -315 63.333 -393 190c-79.333 -126.667 -212.333 -190 -399 -190c-61.333 0 -117.666 7.5 -168.999 22.5s-101.666 40.5 -150.999 76.5s-88.333 90.5 -117 163.5s-43 161.5 -43 265.5zM249.997 512.001
c0 -138 26.333 -238 79 -300s137 -93 253 -93s200.5 31 253.5 93s79.5 162 79.5 300s-26.5 238 -79.5 300s-137.5 93 -253.5 93s-200.333 -31 -253 -93s-79 -162 -79 -300zM1055 555.001h600c0 22 -2.83301 47.667 -8.5 77s-17.334 66.5 -35.001 111.5
s-48.667 82.5 -93 112.5s-98.5 45 -162.5 45c-101.333 0 -175.166 -26.333 -221.499 -79s-72.833 -141.667 -79.5 -267z" />
    <glyph glyph-name="Ydieresis" unicode="&#x178;" horiz-adv-x="1224" 
d="M25 1366h178l405 -596l404 596h178l-508 -739v-627h-147v627zM375 1483v164h164v-164h-164zM678 1483v164h164v-164h-164z" />
    <glyph glyph-name="circumflex" unicode="&#x2c6;" horiz-adv-x="823" 
d="M207 1155l166 246h84l164 -246h-115l-92 143l-92 -143h-115z" />
    <glyph glyph-name="tilde" unicode="&#x2dc;" horiz-adv-x="1038" 
d="M215 1157v117c35.333 44 73 68 113 72c7.33301 0.666992 14.333 1 21 1c32.667 0 65 -8.33301 97 -25l112 -60c31.333 -16 63.666 -24 96.999 -24c6.66699 0 13.667 0.333008 21 1c40.667 4 79 28 115 72v-113c-35.333 -44 -73.666 -68.333 -114.999 -73
c-8 -0.666992 -15.667 -1 -23 -1c-33.333 0 -65 8 -95 24l-112 60c-30.667 15.333 -62 23 -94 23c-8 0 -16 -0.333008 -24 -1c-40 -4.66699 -77.667 -29 -113 -73z" />
    <glyph glyph-name="endash" unicode="&#x2013;" horiz-adv-x="1146" 
d="M141 528v127h860v-127h-860z" />
    <glyph glyph-name="emdash" unicode="&#x2014;" horiz-adv-x="1824" 
d="M162 528v136h1501v-136h-1501z" />
    <glyph glyph-name="quoteleft" unicode="&#x2018;" horiz-adv-x="522" 
d="M96 1384h168l152 -401h-148z" />
    <glyph glyph-name="quoteright" unicode="&#x2019;" horiz-adv-x="522" 
d="M96 983l152 401h168l-172 -401h-148z" />
    <glyph glyph-name="quotesinglbase" unicode="&#x201a;" horiz-adv-x="614" 
d="M147 -229l152 401h166l-170 -401h-148z" />
    <glyph glyph-name="quotedblleft" unicode="&#x201c;" horiz-adv-x="800" 
d="M96 1384h168l152 -401h-148zM375 1384h168l151 -401h-147z" />
    <glyph glyph-name="quotedblright" unicode="&#x201d;" horiz-adv-x="792" 
d="M96 983l152 401h168l-172 -401h-148zM375 983l151 401h168l-172 -401h-147z" />
    <glyph glyph-name="quotedblbase" unicode="&#x201e;" horiz-adv-x="892" 
d="M147 -229l152 401h166l-170 -401h-148zM426 -229l152 401h167l-172 -401h-147z" />
    <glyph glyph-name="bullet" unicode="&#x2022;" horiz-adv-x="849" 
d="M184 684c0 65.333 23.333 121 70 167s102.667 69 168 69c64 0 119.167 -23 165.5 -69s69.5 -101.667 69.5 -167s-23.167 -121.333 -69.5 -168s-101.5 -70 -165.5 -70c-65.333 0 -121.333 23.333 -168 70s-70 102.667 -70 168z" />
    <glyph glyph-name="ellipsis" unicode="&#x2026;" horiz-adv-x="1576" 
d="M219 0v164h164v-164h-164zM711 0v164h161v-164h-161zM1200 0v164h162v-164h-162z" />
    <glyph glyph-name="guilsinglleft" unicode="&#x2039;" horiz-adv-x="710" 
d="M63 522l347 389h198l-364 -389l364 -391h-198z" />
    <glyph glyph-name="guilsinglright" unicode="&#x203a;" horiz-adv-x="776" 
d="M137 131l363 391l-363 389h197l348 -389l-348 -391h-197z" />
    <glyph glyph-name="Euro" unicode="&#x20ac;" horiz-adv-x="1390" 
d="M102 467v123h136c-2.66699 40.667 -4 72 -4 94c-0.666992 2 -1 4 -1 6c0 22 1.66699 51.333 5 88h-136v123h150c60 322 264.667 483 614 483c143.333 0 282 -26.333 416 -79v-142c-129.333 54.667 -262.333 82 -399 82c-138 0 -246.333 -28 -325 -84
s-131 -142.667 -157 -260h658v-123h-674c-2.66699 -40.667 -4 -72 -4 -94c0 -24.667 1.33301 -56 4 -94h674v-123h-658c26 -117.333 78.333 -204 157 -260s187 -84 325 -84c139.333 0 272.333 26.667 399 80v-142c-133.333 -51.333 -270.333 -77 -411 -77h-5
c-349.333 0 -554 161 -614 483h-150z" />
    <glyph glyph-name="trademark" unicode="&#x2122;" horiz-adv-x="1550" 
d="M100 1294v72h557v-72h-241v-610h-74v610h-242zM762 684v682h80l235 -346l236 346h80v-682h-74v561l-242 -348l-241 348v-561h-74z" />
    <glyph glyph-name="uniE000" unicode="&#xe000;" horiz-adv-x="1020" 
d="M0 1020h1020v-1020h-1020v1020z" />
    <glyph glyph-name="uniFB01" unicode="&#xfb01;" horiz-adv-x="1202" 
d="M84 887l0.00292969 136.998h176v53c0 70.667 9.5 131.334 28.5 182.001s40.167 88 63.5 112s53.166 42.833 89.499 56.5s63.666 21.167 81.999 22.5s40.5 2 66.5 2c35.333 0 68.666 -3.33301 99.999 -10v-133c-27.333 5.33301 -52 8 -74 8
c-26 0 -45.667 -0.666992 -59 -2s-31.333 -6.16602 -54 -14.499s-40.167 -20 -52.5 -35s-23.333 -38.5 -33 -70.5s-14.5 -70.667 -14.5 -116v-55h287v-137h-287v-887h-143v887h-176zM885.003 1204v162h164v-162h-164zM893.003 -0.00195312h147v1022h-147v-1022z" />
    <glyph glyph-name="uniFB02" unicode="&#xfb02;" horiz-adv-x="1220" 
d="M84 887l0.00292969 136.998h176v53c0 70.667 9.5 131.334 28.5 182.001s40.167 88 63.5 112s53.166 42.833 89.499 56.5s63.666 21.167 81.999 22.5s40.5 2 66.5 2c35.333 0 68.666 -3.33301 99.999 -10v-133c-27.333 5.33301 -52 8 -74 8
c-26 0 -45.667 -0.666992 -59 -2s-31.333 -6.16602 -54 -14.499s-40.167 -20 -52.5 -35s-23.333 -38.5 -33 -70.5s-14.5 -70.667 -14.5 -116v-55h287v-137h-287v-887h-143v887h-176zM893.003 -0.00195312h147v1411h-147v-1411z" />
    <glyph glyph-name="uniFB03" unicode="&#xfb03;" horiz-adv-x="1890" 
d="M1543 1204v162h163v-162h-163zM1551 0h147v1022h-147v-1022zM757 887l0.000976562 135h176v55c0 70.667 9.16699 131.334 27.5 182.001s39.166 88 62.499 112s53.166 42.833 89.499 56.5s64 21.167 83 22.5s41.5 2 67.5 2c36.667 0 69.334 -4 98.001 -12v-131
c-27.333 5.33301 -52 8 -74 8c-32.667 0 -57.5 -1.33301 -74.5 -4s-37.5 -10.834 -61.5 -24.501s-41.667 -38 -53 -73s-17 -80.5 -17 -136.5v-57h280v-135h-280v-887h-148v887h-176zM82.001 887l0.000976562 135h176v55c0 70.667 9.16699 131.334 27.5 182.001
s39.166 88 62.499 112s53.166 42.833 89.499 56.5s64 21.167 83 22.5s41.5 2 67.5 2c36.667 0 69.334 -4 98.001 -12v-131c-27.333 5.33301 -52 8 -74 8c-32.667 0 -57.5 -1.33301 -74.5 -4s-37.5 -10.834 -61.5 -24.501s-41.667 -38 -53 -73s-17 -80.5 -17 -136.5v-57h280
v-135h-280v-887h-148v887h-176z" />
    <glyph glyph-name="uniFB04" unicode="&#xfb04;" horiz-adv-x="1902" 
d="M1557 0v1411h147v-1411h-147zM757 887l0.000976562 135h176v55c0 70.667 9.16699 131.334 27.5 182.001s39.166 88 62.499 112s53.166 42.833 89.499 56.5s64 21.167 83 22.5s41.5 2 67.5 2c36.667 0 69.334 -4 98.001 -12v-131c-27.333 5.33301 -52 8 -74 8
c-32.667 0 -57.5 -1.33301 -74.5 -4s-37.5 -10.834 -61.5 -24.501s-41.667 -38 -53 -73s-17 -80.5 -17 -136.5v-57h280v-135h-280v-887h-148v887h-176zM82.001 887l0.000976562 135h176v55c0 70.667 9.16699 131.334 27.5 182.001s39.166 88 62.499 112
s53.166 42.833 89.499 56.5s64 21.167 83 22.5s41.5 2 67.5 2c36.667 0 69.334 -4 98.001 -12v-131c-27.333 5.33301 -52 8 -74 8c-32.667 0 -57.5 -1.33301 -74.5 -4s-37.5 -10.834 -61.5 -24.501s-41.667 -38 -53 -73s-17 -80.5 -17 -136.5v-57h280v-135h-280v-887h-148
v887h-176z" />
    <glyph glyph-name=".null" horiz-adv-x="0" 
 />
    <glyph glyph-name="nonmarkingreturn" horiz-adv-x="682" 
 />
    </font>
</defs>
</svg>
